Ссылка на приватное зеркало нашего сайта всего за 1$. Внимание количество ограничено!!!

2 сезон

iTunes

1 сезон

1

2 сезон

2 сезон

iTunes

1 сезон

RePack

30

Ultimate

ВАЖНО

ИГРА 18+

pack

RePack

MK11
pack

Забери бонус

RePack

jed

!!Акция!!

Alien_Rage

RePack

fifa19

RePack

Assassins Creed: Odyssey

RePack

NEED FOR SPEED™ PAYBACK

4 сезон

9 сезон

Бесстыжие 9 сезон

Все сериалы

все сериалы на PB.wtf

RePack

FAR CRY 5
  

Лотерея / The Lottery / Сезон: 1 / Серии 1-10 из 10 (Дэнни Кэннон / Danny Cannon) [2014, США, фантастика, HDTVRip, Любительский многоголосый (Viruse Project) pb.wtf

Лотерея через торрент pb.wtf

Размер: 5.48 GB | Добавлен: 6 лет 1 мес. назад | Торрент скачан:70 раз
Скачать  

30-07-2014 01:33 Лотерея Скачать торрент  

Лотерея / The Lottery


  • Год выпуска: 2014
  • Страна: США
  • Жанр: фантастика
  • Продолжительность: ~00:39:46 (Серия)
  • Перевод: Любительский многоголосый (Viruse Project)

  • Режиссер: Дэнни Кэннон / Danny Cannon
  • В ролях:

    Марли Шелтон (Dr. Alison Lennon), Афина Карканис (Vanessa Keller), Майкл Грациадей (Kyle), Дэвид Алпей (James), Мартин Донован (Darius Hayes), Jesse Filkow (Elvis Walker), Юл Васкес (President), Пол Кэссел (Jack Kerr), Гари Уилмс (Adam Horvath), Бен Холлингсворт (Elliot Rowe), Шелли Конн (Gabrielle), Дж. Аугуст Ричардс

  • Описание:
    В антиутопическом будущем случился глобальный кризис рождаемости. Мир оказался под угрозой исчезновения, поскольку женщины таинственно перестали рожать детей - последние шесть младенцев Америки родились шесть лет назад. Спустя годы исследований доктор Элисон Леннон и её команда успешно оплодотворяют сто яйцеклеток. Однако победа оказывается мимолётной: глава государственной комиссии по фертильности Дариус Хейз, берёт лабораторию под контроль и сообщает президенту о грандиозном научном прорыве. Чтобы определить, кто из женщин выносит драгоценные эмбрионы, глава администрации Ванесса Келлер предлагает президенту устроить национальную лотерею, и битва за контроль над эмбрионами начинается.
  • Рейтинг:



  • Качество: HDTVRip
  • Формат: :AVI
  • Видео кодек: XviD
  • Аудио кодек: MP3
  • Видео: 720x400 (16:9), 1760 kbps, 23,976 fps, 0,255 bpp
  • Аудио: 2.0 / 48 kHz / 192 kbps
  • Релиз от: GEKADOL

    Код:

    Внимание! Раздача ведётся путём добавления новых серий; при каждом добавлении создаётся новый торрент. Чтобы начать докачку новой серии, пользователям необходимо сделать следующее:
    (1) остановить скачивание,
    (2) удалить старый торрент у себя из клиента (старые серии удалять не надо),
    (3) скачать новый торрент и запустить его у себя в клиенте вместо старого, при этом указать клиенту путь в старую папку куда и должно происходить скачивание новых серий.
    Ваш клиент при этом должен произвести хеширование (проверку) старой папки (если не производит сам - помогите ему сделать это), и будет докачивать только те серии которых у вас ещё нет. Старые серии при этом не удаляются, а продолжают раздаваться!
    Eсли вы уже удалили старые серии, то предотвратить повторную закачку старых серий можно, отжав галочку в соответсвующих местах при запуске нового торрента. По возможности, желательно не удалять старые серии как можно дольше чтобы релизёр не столько продолжал раздавать старые серии, а смог сконцентрироваться на новых.


    Код:

    General
    Complete name                            : G:\The.Lottery.S01.ViruseProject\The.Lottery.S01E01.ViruseProject.avi
    Format                                   : AVI
    Format/Info                              : Audio Video Interleave
    File size                                : 558 MiB
    Duration                                 : 39mn 46s
    Overall bit rate                         : 1 962 Kbps
    Writing application                      : VirtualDubMod 1.5.10.2 (build 2540/release)
    Writing library                          : VirtualDubMod build 2540/release

    Video
    ID                                       : 0
    Format                                   : MPEG-4 Visual
    Format profile                           : Advanced Simple@L5
    Format settings, BVOP                    : 1
    Format settings, QPel                    : No
    Format settings, GMC                     : No warppoints
    Format settings, Matrix                  : Default (MPEG)
    Codec ID                                 : XVID
    Codec ID/Hint                            : XviD
    Duration                                 : 39mn 46s
    Bit rate                                 : 1 760 Kbps
    Width                                    : 720 pixels
    Height                                   : 400 pixels
    Display aspect ratio                     : 16:9
    Frame rate                               : 23.976 fps
    Color space                              : YUV
    Chroma subsampling                       : 4:2:0
    Bit depth                                : 8 bits
    Scan type                                : Progressive
    Compression mode                         : Lossy
    Bits/(Pixel*Frame)                       : 0.255
    Stream size                              : 501 MiB (90%)
    Writing library                          : XviD 1.2.1 (UTC 2008-12-04)

    Audio
    ID                                       : 1
    Format                                   : MPEG Audio
    Format version                           : Version 1
    Format profile                           : Layer 3
    Mode                                     : Joint stereo
    Mode extension                           : MS Stereo
    Codec ID                                 : 55
    Codec ID/Hint                            : MP3
    Duration                                 : 39mn 46s
    Bit rate mode                            : Constant
    Bit rate                                 : 192 Kbps
    Channel(s)                               : 2 channels
    Sampling rate                            : 48.0 KHz
    Compression mode                         : Lossy
    Stream size                              : 54.6 MiB (10%)
    Alignment                                : Split accross interleaves
    Interleave, duration                     : 42 ms (1.00 video frame)
    Interleave, preload duration             : 500 ms


    Скриншоты:
    скриншот   скриншот   скриншот   скриншот   скриншот  

    Раздача ведётся путём добавления новых серий. Добавлена 10 серия (04.10.2014).Просьба перекачать торрент файл.

    pb.wtf



  • Скачать Лотерея через торрент http://i67.fastpic.ru/big/2014/0730/61/6b89dff83ac550bef040a2e300a95061.jpg Скачать фильм Лотерея через торрент бесплантно в хорошем качестве Описание: В антиутопическом будущем случился глобальный кризис рождаемости. Мир оказался под угрозой исчезновения, поскольку женщины ... 7 10 6
    Info! Золотая раздача, скачанное не засчитывается.
    Торрент: Зарегистрирован [2014-10-04 07:36] · скачан: 70 раз
    Статус: √ проверено
    Размер: 5.48 GB
    Как cкачать? Как скачать Лотерея через торрент | qTorrent

    % Раздел Тема Автор DL S | L
    Зарубежные сериалы [ 15.59 GB ] Лотерея / The Lottery / Сезон: 1 / Серии 1-10 из 10 [2014 HDTVRip720p Любительский многоголосый GEKADOL Скачать
    1 | 0
    Зарубежные сериалы [ 10.74 GB ] Лотерея / The Lottery / Сезон: 1 / Серии 1-8 из 10 [2014 HDTVRip720 MVO] [BaibaKo] GEKADOL Скачать
    1 | 0
    Зарубежные сериалы [ 4.41 GB ] Лотерея / The Lottery / Сезон: 1 / Серии 1-8 из 10 [2014 HDTVRip MVO] [BaibaKo] GEKADOL Скачать
    1 | 0

    28-11-2019 20:33  

    Отключить всю рекламу на сайте

      Дорогой пользователь! Огромная просьба, поблагодарите релизера, оцените раздачу и оставьте свои комментарий, если Вы скачали Лотерея через торрент бесплатно! Внесите свою лепту в развитие PiratBit!
      Комментировать посты могут только пользователи прошедшие не сложную регистрацию
      Показать сообщения:    

      Лотерея через торрент
      Скачать бесплатно Лотерея
      Лотерея скачать торрент
      Лотерея смотреть онлайн
      Cкачать фильм Лотерея бесплатно
      Лотерея скачать торрент в хорошем качестве
      Лотерея смотреть онлайн бесплатно в хорошем качестве


      Вы не можете начинать темы
      Вы не можете отвечать на сообщения
      Вы не можете редактировать свои сообщения
      Вы не можете удалять свои сообщения
      Вы не можете голосовать в опросах
      Вы не можете прикреплять файлы к сообщениям
      Вы можете скачивать файлы