Ссылка на приватное зеркало нашего сайта всего за 1$. Внимание количество ограничено!!!

2 сезон

iTunes

1 сезон

1

2 сезон

2 сезон

iTunes

1 сезон

RePack

30

Новинка

ВАЖНО

ИГРА 18+

pack

RePack

MK11
pack

Забери бонус

RePack

jed

!!Акция!!

Alien_Rage

RePack

fifa19

RePack

Assassins Creed: Odyssey

RePack

NEED FOR SPEED™ PAYBACK

4 сезон

9 сезон

Бесстыжие 9 сезон

Все сериалы

все сериалы на PB.wtf

RePack

FAR CRY 5
  

Лотерея / The Lottery / Сезон: 1 / Серии 1-10 из 10 (Дэнни Кэннон / Danny Cannon) [2014, США, фантастика, HDTVRip720p, Любительский многоголосый (Viruse Project) pb.wtf

Лотерея через торрент pb.wtf

Размер: 15.59 GB | Добавлен: 6 лет 1 мес. назад | Торрент скачан:51 раз
Скачать  

30-07-2014 01:46 Лотерея Скачать торрент  

Лотерея / The Lottery


  • Год выпуска: 2014
  • Страна: США
  • Жанр: фантастика
  • Продолжительность: ~00:40:04(Серия)
  • Перевод: Любительский многоголосый (Viruse Project)
  • Субтитры: Русские,Английские (org)
  • Режиссер: Дэнни Кэннон / Danny Cannon
  • В ролях:

    Марли Шелтон (Dr. Alison Lennon), Афина Карканис (Vanessa Keller), Майкл Грациадей (Kyle), Дэвид Алпей (James), Мартин Донован (Darius Hayes), Jesse Filkow (Elvis Walker), Юл Васкес (President), Пол Кэссел (Jack Kerr), Гари Уилмс (Adam Horvath), Бен Холлингсворт (Elliot Rowe), Шелли Конн (Gabrielle), Дж. Аугуст Ричардс

  • Описание:
    В антиутопическом будущем случился глобальный кризис рождаемости. Мир оказался под угрозой исчезновения, поскольку женщины таинственно перестали рожать детей - последние шесть младенцев Америки родились шесть лет назад. Спустя годы исследований доктор Элисон Леннон и её команда успешно оплодотворяют сто яйцеклеток. Однако победа оказывается мимолётной: глава государственной комиссии по фертильности Дариус Хейз, берёт лабораторию под контроль и сообщает президенту о грандиозном научном прорыве. Чтобы определить, кто из женщин выносит драгоценные эмбрионы, глава администрации Ванесса Келлер предлагает президенту устроить национальную лотерею, и битва за контроль над эмбрионами начинается.
  • Рейтинг:



  • Качество: HDTVRip720p
  • Формат: :MKV
  • Видео кодек: AVC
  • Аудио кодек: AC3
  • Видео: 1280x720 (16:9), 4500 kbps, 23,976 fps, 0,204 bpp
  • Аудио №1: русский / 5.1 / 48 kHz / 384 kbps / 16 bit
  • Аудио №2: английский / 5.1 / 48 kHz / 384 kbps / 16 bit
  • Релиз от: GEKADOL

    Код:

    Внимание! Раздача ведётся путём добавления новых серий; при каждом добавлении создаётся новый торрент. Чтобы начать докачку новой серии, пользователям необходимо сделать следующее:
    (1) остановить скачивание,
    (2) удалить старый торрент у себя из клиента (старые серии удалять не надо),
    (3) скачать новый торрент и запустить его у себя в клиенте вместо старого, при этом указать клиенту путь в старую папку куда и должно происходить скачивание новых серий.
    Ваш клиент при этом должен произвести хеширование (проверку) старой папки (если не производит сам - помогите ему сделать это), и будет докачивать только те серии которых у вас ещё нет. Старые серии при этом не удаляются, а продолжают раздаваться!
    Eсли вы уже удалили старые серии, то предотвратить повторную закачку старых серий можно, отжав галочку в соответсвующих местах при запуске нового торрента. По возможности, желательно не удалять старые серии как можно дольше чтобы релизёр не столько продолжал раздавать старые серии, а смог сконцентрироваться на новых.


    Код:

    General
    Unique ID                                : 198411234342846541927958740503558951240 (0x95449D1EE01E1FBC90F8234FA3A51148)
    Complete name                            : G:\The.Lottery.S01.720p.ViruseProject\The.Lottery.S01E01.720p.ViruseProject.mkv
    Format                                   : Matroska
    Format version                           : Version 4 / Version 2
    File size                                : 1.48 GiB
    Duration                                 : 40mn 4s
    Overall bit rate                         : 5 270 Kbps
    Encoded date                             : UTC 2014-07-29 14:12:11
    Writing application                      : mkvmerge v6.5.0 ('Isn't she lovely') built on Oct 20 2013 12:50:05
    Writing library                          : libebml v1.3.0 + libmatroska v1.4.1
    DURATION                                 : 00:40:04.416000000
    NUMBER_OF_FRAMES                         : 75138
    NUMBER_OF_BYTES                          : 115411968
    _STATISTICS_WRITING_APP                  : mkvmerge v7.0.0 ('Where We Going') 32bit built on Jun  9 2014 15:08:34
    _STATISTICS_WRITING_DATE_UTC             : 2014-07-29 07:07:15
    _STATISTICS_TAGS                         : BPS DURATION NUMBER_OF_FRAMES NUMBER_OF_BYTES

    Video
    ID                                       : 1
    Format                                   : AVC
    Format/Info                              : Advanced Video Codec
    Format profile                           : High@L4.1
    Format settings, CABAC                   : Yes
    Format settings, ReFrames                : 9 frames
    Codec ID                                 : V_MPEG4/ISO/AVC
    Duration                                 : 40mn 4s
    Bit rate                                 : 4 500 Kbps
    Width                                    : 1 280 pixels
    Height                                   : 720 pixels
    Display aspect ratio                     : 16:9
    Frame rate                               : 23.976 fps
    Color space                              : YUV
    Chroma subsampling                       : 4:2:0
    Bit depth                                : 8 bits
    Scan type                                : Progressive
    Bits/(Pixel*Frame)                       : 0.204
    Stream size                              : 1.23 GiB (83%)
    Writing library                          : x264 core 142 r2431 ac76440
    Encoding settings                        : cabac=1 / ref=9 / deblock=1:-3:-3 / analyse=0x3:0x133 / me=umh / subme=10 / psy=1 / psy_rd=1.05:0.00 / mixed_ref=1 / me_range=24 / chroma_me=1 / trellis=2 / 8x8dct=1 / cqm=0 / deadzone=21,11 / fast_pskip=0 / chroma_qp_offset=-2 / threads=6 / lookahead_threads=1 / sliced_threads=0 / nr=0 / decimate=0 / interlaced=0 / bluray_compat=0 / constrained_intra=0 / bframes=3 / b_pyramid=2 / b_adapt=2 / b_bias=0 / direct=3 / weightb=1 / open_gop=0 / weightp=2 / keyint=240 / keyint_min=23 / scenecut=40 / intra_refresh=0 / rc_lookahead=60 / rc=2pass / mbtree=0 / bitrate=4500 / ratetol=1.0 / qcomp=0.70 / qpmin=0 / qpmax=51 / qpstep=4 / cplxblur=20.0 / qblur=0.5 / vbv_maxrate=62500 / vbv_bufsize=78125 / nal_hrd=none / filler=0 / ip_ratio=1.40 / pb_ratio=1.30 / aq=1:0.80
    Language                                 : English
    Default                                  : Yes
    Forced                                   : No
    DURATION                                 : 00:40:04.402000000
    NUMBER_OF_FRAMES                         : 57648
    NUMBER_OF_BYTES                          : 1352497529
    _STATISTICS_WRITING_APP                  : mkvmerge v7.0.0 ('Where We Going') 32bit built on Jun  9 2014 15:08:34
    _STATISTICS_WRITING_DATE_UTC             : 2014-07-29 07:07:15
    _STATISTICS_TAGS                         : BPS DURATION NUMBER_OF_FRAMES NUMBER_OF_BYTES

    Audio #1
    ID                                       : 2
    Format                                   : AC-3
    Format/Info                              : Audio Coding 3
    Mode extension                           : CM (complete main)
    Codec ID                                 : A_AC3
    Duration                                 : 40mn 4s
    Bit rate mode                            : Constant
    Bit rate                                 : 384 Kbps
    Channel(s)                               : 6 channels
    Channel positions                        : Front: L C R, Side: L R, LFE
    Sampling rate                            : 48.0 KHz
    Bit depth                                : 16 bits
    Compression mode                         : Lossy
    Stream size                              : 110 MiB (7%)
    Title                                    : ViruseProject
    Language                                 : Russian
    Default                                  : Yes
    Forced                                   : No

    Audio #2
    ID                                       : 3
    Format                                   : AC-3
    Format/Info                              : Audio Coding 3
    Mode extension                           : CM (complete main)
    Codec ID                                 : A_AC3
    Duration                                 : 40mn 4s
    Bit rate mode                            : Constant
    Bit rate                                 : 384 Kbps
    Channel(s)                               : 6 channels
    Channel positions                        : Front: L C R, Side: L R, LFE
    Sampling rate                            : 48.0 KHz
    Bit depth                                : 16 bits
    Compression mode                         : Lossy
    Delay relative to video                  : 32ms
    Stream size                              : 110 MiB (7%)
    Title                                    : org
    Language                                 : English
    Default                                  : No
    Forced                                   : No

    Text #1
    ID                                       : 4
    Format                                   : UTF-8
    Codec ID                                 : S_TEXT/UTF8
    Codec ID/Info                            : UTF-8 Plain Text
    Title                                    : ViruseProject
    Language                                 : Russian
    Default                                  : No
    Forced                                   : No

    Text #2
    ID                                       : 5
    Format                                   : UTF-8
    Codec ID                                 : S_TEXT/UTF8
    Codec ID/Info                            : UTF-8 Plain Text
    Title                                    : org
    Language                                 : English
    Default                                  : No
    Forced                                   : No


    Скриншоты:
    скриншот   скриншот   скриншот   скриншот   скриншот  

    Раздача ведётся путём добавления новых серий. Добавлена 10 серия (04.10.2014).Просьба перекачать торрент файл.

    pb.wtf



  • Скачать Лотерея через торрент http://i67.fastpic.ru/big/2014/0730/61/6b89dff83ac550bef040a2e300a95061.jpg Скачать фильм Лотерея через торрент бесплантно в хорошем качестве Описание: В антиутопическом будущем случился глобальный кризис рождаемости. Мир оказался под угрозой исчезновения, поскольку женщины ... 7 10 5
    Info! Золотая раздача, скачанное не засчитывается.
    Торрент: Зарегистрирован [2014-10-04 07:39] · скачан: 51 раз
    Статус: √ проверено
    Размер: 15.59 GB
    Как cкачать? Как скачать Лотерея через торрент | qTorrent

    % Раздел Тема Автор DL S | L
    Зарубежные сериалы [ 10.74 GB ] Лотерея / The Lottery / Сезон: 1 / Серии 1-8 из 10 [2014 HDTVRip720 MVO] [BaibaKo] GEKADOL Скачать
    1 | 0
    Зарубежные сериалы [ 4.41 GB ] Лотерея / The Lottery / Сезон: 1 / Серии 1-8 из 10 [2014 HDTVRip MVO] [BaibaKo] GEKADOL Скачать
    1 | 0
    Зарубежные сериалы [ 5.48 GB ] Лотерея / The Lottery / Сезон: 1 / Серии 1-10 из 10 [2014 HDTVRip Любительский многоголосый GEKADOL Скачать
    1 | 0


    Последний раз редактировалось: GEKADOL (2014-10-04 07:39), всего редактировалось 6 раз(а)

    28-11-2019 20:33  

    Отключить всю рекламу на сайте

    08-08-2014 13:49 Лотерея Скачать торрент  

    битва за эмбриоонн......pb.wtf



    26-11-2014 20:40 Лотерея Скачать торрент  

    Кто уже посмотрел? Стоит качать?pb.wtf



      Дорогой пользователь! Огромная просьба, поблагодарите релизера, оцените раздачу и оставьте свои комментарий, если Вы скачали Лотерея через торрент бесплатно! Внесите свою лепту в развитие PiratBit!
      Комментировать посты могут только пользователи прошедшие не сложную регистрацию
      Показать сообщения:    

      Лотерея через торрент
      Скачать бесплатно Лотерея
      Лотерея скачать торрент
      Лотерея смотреть онлайн
      Cкачать фильм Лотерея бесплатно
      Лотерея скачать торрент в хорошем качестве
      Лотерея смотреть онлайн бесплатно в хорошем качестве


      Вы не можете начинать темы
      Вы не можете отвечать на сообщения
      Вы не можете редактировать свои сообщения
      Вы не можете удалять свои сообщения
      Вы не можете голосовать в опросах
      Вы не можете прикреплять файлы к сообщениям
      Вы можете скачивать файлы