2 сезон

iTunes

MVO

1

2 сезон

iTunes

iTunes

1 сезон

RePack

30

Новинка

ВАЖНО

ИГРА 18+

pack

RePack

MK11
pack

Легкие деньги

RePack

jed

RePack

fifa19

RePack

RDR2

RePack

NEED FOR SPEED™ PAYBACK

4 сезон

9 сезон

Бесстыжие 9 сезон

Все сериалы

все сериалы на PB.wtf

RePack

FAR CRY 5

Anonymous, добрый вечер, мы не успеваем собрать деньги на оплату серверов за декабрь и январь, помогите нам пожалуйста в это трудное время. В качестве благодарности мы отключим Вам всю рекламу на сайте (укажите свой ник в строку Ваше имя)!

×
  
Magnet ссылка

Рейд / Serbuan maut (Гарет Эванс ) [2011, Индонезия, боевик, BDRip 1080p] DUB Лицензия 60fps pb.wtf

Рейд через торрент pb.wtf

Размер: 12.65 GB | Добавлен: 6 лет 5 мес. назад | Торрент скачан:239 раз
Скачать  

30-07-2014 07:01 Рейд Скачать торрент  

Рейд / Serbuan maut
«Спецназ против мафии. Брат против брата. 30 этажей ада»

Год выпуска: 2011
Страна: Индонезия, США, Франция
Жанр:боевик, триллер, криминал
Продолжительность:01:41:04
Перевод:Дубляж - [Лицензия]
Субтитры: Rus (полные), Eng (полные) Вшитые
Режиссер:Гарет Эванс / Gareth Evans

  • В ролях:

    Ико Ювайс (Rama), Джо Таслим (Jaka), Дони Аламсях (Andi), Яян Рухьян (Mad Dog), Пьер Грюно (Wahyu), Рэй Сахетапи (Tama), Тегар Сатрия (Bowo), Ианг Дармаван (Gofar), Эка «Пиранья» Рахмадия (Dagu), Верди Солайман (Budi), Альфридиус Годфред (Machete Gang #1), Рулли Сантосо (Machete Gang #2)

  • Описание:
    Отряд спецназовцев получает задание проникнуть в многоэтажный дом, расположенный в самом сердце трущоб Джакарты, и арестовать обосновавшегося там наркобарона, которого охраняет целая армия вооруженных до зубов головорезов. Операцию нужно провести без лишнего шума, но нелепая случайность нарушает планы служителей закона. Теперь бойцам негде спрятаться и некуда бежать. Перед ними 30 этажей ада, где смертью грозит каждый неверный шаг. Война по правилам кончилась. Выживает сильнейший!

  • Мировая премьера:8 сентября 2011


      Качество: BDRip 1080p
      Формат:MKV
      Видео кодек: AVC
      Аудио кодек:AC3
      Видео: 1920x1080 (16:9), 16000 kbps, 59,940 fps
      Аудио №1: русский/ 5.1/ 48 kHz/ 640 kbps/ AC3/ ||
      Аудио №2: Indonesian/ 5.1/ 48 kHz/ 640 kbps/ AC3
      Аудио №3: Indonesian/ 5.1/ 48 kHz/ 640 kbps/ AC3
      Навигация по главам: есть


    Оптимальные настройки http://www.svp-team.com/wiki/Аппаратные_декодеры
    В 2,5 раза больше кадров!
    В 2,5 раза плавнее! (59,94 fps)
    Приятного просмотра. =)

    Код:

    General
    Unique ID                                : 234479213744409686938988522895228365552 (0xB0670DCCF5751C5DA111CFB994956AF0)
    Complete name                            : D:\Торенты\Рейд 1080p.mkv
    Format                                   : Matroska
    Format version                           : Version 4 / Version 2
    File size                                : 12.7 GiB
    Duration                                 : 1h 41mn
    Overall bit rate                         : 17.9 Mbps
    Encoded date                             : UTC 2014-04-09 15:16:37
    Writing application                      : mkvmerge v6.8.0 ('Theme for Great Cities') 64bit built on Mar  2 2014 21:34:26
    Writing library                          : libebml v1.3.0 + libmatroska v1.4.1

    Video
    ID                                       : 1
    Format                                   : AVC
    Format/Info                              : Advanced Video Codec
    Format profile                           : High@L4.1
    Format settings, CABAC                   : Yes
    Format settings, ReFrames                : 5 frames
    Codec ID                                 : V_MPEG4/ISO/AVC
    Duration                                 : 1h 41mn
    Bit rate                                 : 16.0 Mbps
    Width                                    : 1 920 pixels
    Height                                   : 1 080 pixels
    Display aspect ratio                     : 16:9
    Frame rate                               : 59.940 fps
    Color space                              : YUV
    Chroma subsampling                       : 4:2:0
    Bit depth                                : 8 bits
    Scan type                                : Progressive
    Bits/(Pixel*Frame)                       : 0.129
    Stream size                              : 11.0 GiB (87%)
    Writing library                          : x264 core 130 r2273 b3065e6
    Encoding settings                        : cabac=1 / ref=5 / deblock=1:-1:-1 / analyse=0x3:0 / me=umh / subme=9 / psy=1 / psy_rd=1.00:0.10 / mixed_ref=1 / me_range=24 / chroma_me=0 / trellis=1 / 8x8dct=1 / cqm=0 / deadzone=21,11 / fast_pskip=0 / chroma_qp_offset=-3 / threads=6 / lookahead_threads=1 / sliced_threads=0 / nr=0 / decimate=0 / interlaced=0 / bluray_compat=0 / constrained_intra=0 / bframes=5 / b_pyramid=2 / b_adapt=2 / b_bias=0 / direct=3 / weightb=1 / open_gop=0 / weightp=2 / keyint=250 / keyint_min=25 / scenecut=40 / intra_refresh=0 / rc=2pass / mbtree=0 / bitrate=16000 / ratetol=1.0 / qcomp=0.60 / qpmin=0 / qpmax=69 / qpstep=4 / cplxblur=20.0 / qblur=0.5 / ip_ratio=1.40 / pb_ratio=1.30 / aq=1:0.90
    Language                                 : English
    Default                                  : Yes
    Forced                                   : No

    Audio #1
    ID                                       : 2
    Format                                   : AC-3
    Format/Info                              : Audio Coding 3
    Mode extension                           : CM (complete main)
    Codec ID                                 : A_AC3
    Duration                                 : 1h 41mn
    Bit rate mode                            : Constant
    Bit rate                                 : 640 Kbps
    Channel(s)                               : 6 channels
    Channel positions                        : Front: L C R, Side: L R, LFE
    Sampling rate                            : 48.0 KHz
    Bit depth                                : 16 bits
    Compression mode                         : Lossy
    Stream size                              : 463 MiB (4%)
    Title                                    : Dub (Саундтрек - Майк Шинода)
    Language                                 : Russian
    Default                                  : Yes
    Forced                                   : No

    Audio #2
    ID                                       : 3
    Format                                   : AC-3
    Format/Info                              : Audio Coding 3
    Mode extension                           : CM (complete main)
    Codec ID                                 : A_AC3
    Duration                                 : 1h 41mn
    Bit rate mode                            : Constant
    Bit rate                                 : 640 Kbps
    Channel(s)                               : 6 channels
    Channel positions                        : Front: L C R, Side: L R, LFE
    Sampling rate                            : 48.0 KHz
    Bit depth                                : 16 bits
    Compression mode                         : Lossy
    Stream size                              : 463 MiB (4%)
    Title                                    : Original (Саундтрек - Майк Шинода)
    Language                                 : Indonesian
    Default                                  : No
    Forced                                   : No

    Audio #3
    ID                                       : 4
    Format                                   : AC-3
    Format/Info                              : Audio Coding 3
    Mode extension                           : CM (complete main)
    Codec ID                                 : A_AC3
    Duration                                 : 1h 41mn
    Bit rate mode                            : Constant
    Bit rate                                 : 640 Kbps
    Channel(s)                               : 6 channels
    Channel positions                        : Front: L C R, Side: L R, LFE
    Sampling rate                            : 48.0 KHz
    Bit depth                                : 16 bits
    Compression mode                         : Lossy
    Stream size                              : 463 MiB (4%)
    Title                                    : Original (Оригинальный саундтрек)
    Language                                 : Indonesian
    Default                                  : No
    Forced                                   : No

    Text #1
    ID                                       : 5
    Format                                   : UTF-8
    Codec ID                                 : S_TEXT/UTF8
    Codec ID/Info                            : UTF-8 Plain Text
    Title                                    : Full
    Language                                 : Russian
    Default                                  : No
    Forced                                   : No

    Text #2
    ID                                       : 6
    Format                                   : UTF-8
    Codec ID                                 : S_TEXT/UTF8
    Codec ID/Info                            : UTF-8 Plain Text
    Title                                    : Full
    Language                                 : English
    Default                                  : No
    Forced                                   : No

    Menu
    00:00:00.000                             : en:00:00:00.000
    00:06:15.125                             : en:00:06:15.125
    00:12:36.381                             : en:00:12:36.381
    00:17:37.765                             : en:00:17:37.765
    00:22:45.698                             : en:00:22:45.698
    00:27:06.917                             : en:00:27:06.917
    00:32:45.881                             : en:00:32:45.881
    00:37:27.495                             : en:00:37:27.495
    00:42:37.889                             : en:00:42:37.889
    00:48:49.927                             : en:00:48:49.927
    00:55:16.104                             : en:00:55:16.104
    00:59:58.720                             : en:00:59:58.720
    01:05:15.829                             : en:01:05:15.829
    01:10:53.332                             : en:01:10:53.332
    01:16:29.168                             : en:01:16:29.168
    01:30:09.779                             : en:01:30:09.779

    Скриншоты:

    Каталог Новинок (Фильмы-трейлеры, Игры, Сериалы, Мультфильмы)
    О качестве рипов с 60 FPS + FAQ (Жмите) Как сделать видео 60fps? (Жмите)


    pb.wtf



  • Скачать Рейд через торрент http://pic.kartinco.top/new/img/2014-07/30/mbhbafrb86twfql9rw69dzgvh.jpg Скачать фильм Рейд через торрент бесплантно в хорошем качестве Описание:Отряд спецназовцев получает задание проникнуть в многоэтажный дом, расположенный в самом сердце трущоб Джакарты, и арестовать ... 10 10 7
    Info! Золотая раздача, скачанное не засчитывается.
    Торрент: Зарегистрирован [2014-07-30 07:01] · скачан: 239 раз
    Статус: √ проверено
    Размер: 12.65 GB
    Как cкачать? Как скачать Рейд через торрент | UTorrent

    28-11-2019 20:33  

    Отключить всю рекламу на сайте

      Дорогой пользователь! Огромная просьба, поблагодарите релизера, оцените раздачу и оставьте свои комментарий, если Вы скачали Рейд через торрент бесплатно! Внесите свою лепту в развитие PiratBit!
      Комментировать посты могут только пользователи прошедшие не сложную регистрацию
      Показать сообщения:    

      Рейд через торрент
      Скачать бесплатно Рейд
      Рейд скачать торрент
      Рейд смотреть онлайн
      Cкачать фильм Рейд бесплатно
      Рейд скачать торрент в хорошем качестве
      Рейд смотреть онлайн бесплатно в хорошем качестве


      Вы не можете начинать темы
      Вы не можете отвечать на сообщения
      Вы не можете редактировать свои сообщения
      Вы не можете удалять свои сообщения
      Вы не можете голосовать в опросах
      Вы не можете прикреплять файлы к сообщениям
      Вы можете скачивать файлы