Anonymous, добрый день, присоединяйтесь к нам в Telegram!, здесь всегда актуальный адрес сайта, оперативная поддержка и многое другое!

>

5.5

iTunes

7.4

iTunes

7.9

iTunes

1

7.7

1 сезон

6.8

iTunes

7.3

1 сезон

13

6.7

1 сезон

8.3

RePack

30

ULTIMATE

pack

9.9

Лицензия

ВАЖНО

ИГРА 18+

pack

7.3

RePack

MK11

7.7

RePack

jed

7.8

RePack

fifa19

8.5

RePack

RDR2

RePack

NEED FOR SPEED™ PAYBACK

4 сезон

9 сезон

Бесстыжие 9 сезон

Все сериалы

все сериалы на PB.wtf

RePack

FAR CRY 5

Anonymous, добрый день, мы катастрофически не успеваем собрать деньги на оплату серверов, помогите нам пожалуйста 5,10,15р., для нас важна любая помощь . В качестве благодарности мы отключим Вам всю рекламу на сайте (укажите свой ник в строку Ваше имя)!

×
  
Magnet ссылка

Риддик / Riddick (Дэвид Туи ) [Трилогия] [1999, 2004, 2013, фантастика, боевик, BDRip 1080p, DUB] 60fps [Director's Cut] pb.wtf

Риддик через торрент pb.wtf

Раздают: 1 [ 0 KB/s ]
Размер: 28.82 GB | Добавлен: 7 лет 2 мес. назад | Торрент скачан:793 раза
Смотреть онлайн Риддик | Скачать    Ребята, помогите собрать деньги на оплату серверов!!!

30-07-2014 08:41 Риддик Скачать торрент  

Перед скачиванием обязательно проверьте Сэмплы на своем оборудовании.
В 2,5 раза больше кадров!
В 2,5 раза плавнее! (59,94 fps)
Приятного просмотра.
Чёрная дыра / Pitch Black
«A new species of terror»

Год выпуска: 1999
Страна: США
Жанр:фантастика, боевик, триллер
Продолжительность:01:51:55
Перевод:Дубляж (со вставками многолосого), Многоголосый закадровый
Субтитры: Rus (полные), Eng (полные)
Режиссер:Дэвид Туи / David Twohy

  • В ролях:

    Вин Дизель (Richard B. Riddick), Рада Митчелл (Carolyn Fry), Коул Хаузер (William J. Johns), Кит Дэвид (Abu «Imam» al-Walid), Льюис Фиц-Джералд (Paris P. Ogilvie), Клаудия Блэк (Sharon «Shazza» Montgomery), Риана Гриффит (Jack / Jackie), Джон Мур (John «Zeke» Ezekiel), Саймон Бурк (Greg Owens), Лес Чэнтери (Suleiman), Сэм Сари (Hassan), Фирэсс Дирани (Ali)

  • Описание:
    В недалеком будущем космический корабль терпит бедствие, в результате чего совершает вынужденную посадку на отдаленной планете. Но в результате такой посадки погибает командир корабля, часть команды и большинство пассажиров.
    Оставшиеся в живых оказываются одни на жуткой и безжизненной планете. Первое, что бросается в глаза - это то, что планета имеет три солнца, из-за чего все живое погибает в этой пустыне. Но как только планета погружается в темноту, появляются какие-то странные существа...

  • Мировая премьера:18 февраля 2000


      Качество: BDRip 1080p
      Формат:MKV
      Видео кодек: AVC
      Аудио кодек:AC3
      Видео: ~11500 kb/s / 1920*816 / 59,940 кадров/сек
      Аудио 1 Русский: AC3 5.1, 448 kb/s, 48,0 КГц Дубляж + Киномания на вставки
      Аудио 2 Русский: AC3 5.1, 640 kb/s, 48,0 КГц Многоголосый - Киномания
      Аудио 3 Английский: AC3 5.1, 640 kb/s 48,0 КГц


    Код:

    Общее
    Уникальный идентификатор : 208222546700654836272455310556578386504 (0x9CA6342AD7DF14419E9EFA7AFE171248)
    Полное имя : F:\Риддик 1080p 60fps\Риддик 1 1080p 60fps.mkv
    Формат : Matroska
    Версия формата : Version 4 / Version 2
    Размер файла : 10,6 Гбайт
    Продолжительность : 1 ч. 51 м.
    Общий поток : 13,5 Мбит/сек
    Дата кодирования : UTC 2014-06-26 10:21:33
    Программа кодирования : mkvmerge v7.0.0 ('Where We Going') 64bit built on Jun 9 2014 15:16:27
    Библиотека кодирования : libebml v1.3.0 + libmatroska v1.4.1
    DURATION : 01:44:31.150000000
    NUMBER_OF_FRAMES : 1038
    NUMBER_OF_BYTES : 29534
    _STATISTICS_WRITING_APP : mkvmerge v7.0.0 ('Where We Going') 64bit built on Jun 9 2014 15:16:27
    _STATISTICS_WRITING_DATE_UTC : 2014-06-26 10:21:33
    _STATISTICS_TAGS : BPS DURATION NUMBER_OF_FRAMES NUMBER_OF_BYTES
    Attachment : Yes

    Видео
    Идентификатор : 1
    Формат : AVC
    Формат/Информация : Advanced Video Codec
    Профиль формата : High@L4.1
    Параметр CABAC формата : Да
    Параметр ReFrames формата : 4 кадра
    Идентификатор кодека : V_MPEG4/ISO/AVC
    Продолжительность : 1 ч. 51 м.
    Битрейт : 11,5 Мбит/сек
    Ширина : 1920 пикселей
    Высота : 816 пикселей
    Соотношение сторон : 2,35:1
    Режим частоты кадров : Постоянный
    Частота кадров : 59,880 кадров/сек
    Частота кадров в оригинале : 59,940 кадров/сек
    Цветовое пространство : YUV
    Субдискретизация насыщенности : 4:2:0
    Битовая глубина : 8 бит
    Тип развёртки : Прогрессивная
    Бит/(Пиксели*Кадры) : 0.123
    Размер потока : 9,00 Гбайт (85%)
    Библиотека кодирования : x264 core 130 r2273 b3065e6
    Настройки программы : cabac=1 / ref=4 / deblock=1:-1:-1 / analyse=0x3:0 / me=umh / subme=9 / psy=1 / psy_rd=1.00:0.10 / mixed_ref=1 / me_range=24 / chroma_me=0 / trellis=1 / 8x8dct=1 / cqm=0 / deadzone=21,11 / fast_pskip=0 / chroma_qp_offset=-3 / threads=12 / lookahead_threads=1 / sliced_threads=0 / nr=0 / decimate=0 / interlaced=0 / bluray_compat=0 / constrained_intra=0 / bframes=5 / b_pyramid=2 / b_adapt=2 / b_bias=0 / direct=1 / weightb=1 / open_gop=0 / weightp=2 / keyint=599 / keyint_min=59 / scenecut=40 / intra_refresh=0 / rc=crf / mbtree=0 / crf=18.0 / qcomp=0.60 / qpmin=0 / qpmax=69 / qpstep=4 / ip_ratio=1.40 / pb_ratio=1.30 / aq=1:0.90
    Язык : English
    Default : Да
    Forced : Нет
    DURATION : 01:51:55.065000000
    NUMBER_OF_FRAMES : 402501
    NUMBER_OF_BYTES : 9887982380
    _STATISTICS_WRITING_APP : mkvmerge v7.0.0 ('Where We Going') 64bit built on Jun 9 2014 15:16:27
    _STATISTICS_WRITING_DATE_UTC : 2014-06-26 10:21:33
    _STATISTICS_TAGS : BPS DURATION NUMBER_OF_FRAMES NUMBER_OF_BYTES

    Аудио #1
    Идентификатор : 2
    Формат : AC-3
    Формат/Информация : Audio Coding 3
    Расширение режима : CM (complete main)
    Параметр Endianness формата : Big
    Идентификатор кодека : A_AC3
    Продолжительность : 1 ч. 51 м.
    Вид битрейта : Постоянный
    Битрейт : 448 Кбит/сек
    Каналы : 6 каналов
    Расположение каналов : Front: L C R, Side: L R, LFE
    Частота : 48,0 КГц
    Битовая глубина : 16 бит
    Метод сжатия : С потерями
    Размер потока : 359 Мбайт (3%)
    Заголовок : Dub+MVO
    Язык : Russian
    Default : Да
    Forced : Нет

    Аудио #2
    Идентификатор : 3
    Формат : AC-3
    Формат/Информация : Audio Coding 3
    Расширение режима : CM (complete main)
    Параметр Endianness формата : Big
    Идентификатор кодека : A_AC3
    Продолжительность : 1 ч. 51 м.
    Вид битрейта : Постоянный
    Битрейт : 640 Кбит/сек
    Каналы : 6 каналов
    Расположение каналов : Front: L C R, Side: L R, LFE
    Частота : 48,0 КГц
    Битовая глубина : 16 бит
    Метод сжатия : С потерями
    Задержка видео : 16 мс.
    Размер потока : 512 Мбайт (5%)
    Заголовок : MVO
    Язык : Russian
    Default : Нет
    Forced : Нет

    Аудио #3
    Идентификатор : 4
    Формат : AC-3
    Формат/Информация : Audio Coding 3
    Расширение режима : CM (complete main)
    Параметр Endianness формата : Big
    Идентификатор кодека : A_AC3
    Продолжительность : 1 ч. 51 м.
    Вид битрейта : Постоянный
    Битрейт : 640 Кбит/сек
    Каналы : 6 каналов
    Расположение каналов : Front: L C R, Side: L R, LFE
    Частота : 48,0 КГц
    Битовая глубина : 16 бит
    Метод сжатия : С потерями
    Размер потока : 512 Мбайт (5%)
    Заголовок : Original
    Язык : English
    Default : Нет
    Forced : Нет

    Текст #1
    Идентификатор : 5
    Формат : UTF-8
    Идентификатор кодека : S_TEXT/UTF8
    Идентификатор кодека/Информация : UTF-8 Plain Text
    Заголовок : Full
    Язык : Russian
    Default : Нет
    Forced : Нет

    Текст #2
    Идентификатор : 6
    Формат : UTF-8
    Идентификатор кодека : S_TEXT/UTF8
    Идентификатор кодека/Информация : UTF-8 Plain Text
    Заголовок : Full
    Язык : English
    Default : Нет
    Forced : Нет

    Меню
    00:00:00.000 : en:Chapter 1
    00:02:56.884 : en:Chapter 2
    00:08:28.007 : en:Chapter 3
    00:17:05.857 : en:Chapter 4
    00:27:13.631 : en:Chapter 5
    00:32:27.987 : en:Chapter 6
    00:36:49.914 : en:Chapter 7
    00:46:49.389 : en:Chapter 8
    00:56:08.907 : en:Chapter 9
    01:02:45.677 : en:Chapter 10
    01:08:07.750 : en:Chapter 11
    01:14:22.291 : en:Chapter 12
    01:20:00.502 : en:Chapter 13
    01:25:38.800 : en:Chapter 14
    01:30:14.908 : en:Chapter 15
    01:38:59.975 : en:Chapter 16
    01:43:37.877 : en:Chapter 17
    01:46:13.867 : en:Chapter 18

    Скриншоты:

    Каталог Новинок (Фильмы-трейлеры, Игры, Сериалы, Мультфильмы)

    © Оформление by Raven
  • Хроники Риддика / The Chronicles of Riddick
    «Все силы во вселенной не смогут изменить судьбу»

    Год выпуска: 2004
    Страна: США
    Жанр:фантастика, боевик, триллер, приключения
    Продолжительность: 02:14:06
    Перевод:Дубляж (со вставками многоголосого), Многоголосый закадровый
    Субтитры: Rus (полные), Eng (полные)
    Режиссер:Дэвид Туи / David Twohy

  • В ролях:

    Вин Дизель (Riddick), Колм Фиор (Lord Marshal), Тэнди Ньютон (Dame Vaako), Джуди Денч (Aereon), Карл Урбан (Vaako), Алекса Давалос (Kyra), Лайнас Роуч (Purifier), Йорик ван Вагенинген (The Guv), Ник Чинланд (Toombs), Кит Дэвид (Imam), Марк Гиббон (Irgun), Роджер Р. Кросс (Toal)

  • Описание:
    Последние пять лет Риддик провел в бегах среди забытых миров на задворках галактики, прячась от наемников, назначивших цену за его голову. Теперь беглец оказался на планете Гелион, где живет прогрессивное многонациональное общество, завоеванное лордом Маршалом, фанатиком, решившим поработить человечество армадой своих воинов, некромонгеров.
    Совершив побег из подземной тюрьмы, где температура колебалась от арктических ночей до вулканических дней, Риддик встречает Кайру, последнюю оставшуюся в живых женщину из раннего периода его жизни. Его попытки освободить себя и Кайру приводят их на борт главного корабля некромонгеров, где ему предстоит столкнуться с лордом Маршалом в апокалиптической битве не на жизнь, а на смерть.

  • Мировая премьера:3 июня 2004


      Качество: BDRip 1080p
      Формат:MKV
      Видео кодек: AVC
      Аудио кодек:AC3
      Видео: ~8444 kb/s / 1920*800 / 59,940 кадров/сек
      Аудио 1 Русский: AC3 5.1, 640 kb/s, Дубляж + CP Digital на вставки
      Аудио 2 Русский: AC3 5.1, 640 kb/s, 48,0 КГц Многолосый - CP Digital
      Аудио 3 Английский: AC3 5.1, 640 kb/s 48,0 КГц



    Код:

    Общее
    Уникальный идентификатор : 210421154685298099294792313826373040620 (0x9E4DA3E900CC4566940AE424325079EC)
    Полное имя : F:\Риддик 1080p 60fps\Риддик 2 1080p 60fps.mkv
    Формат : Matroska
    Версия формата : Version 4 / Version 2
    Размер файла : 9,91 Гбайт
    Продолжительность : 2 ч. 14 м.
    Общий поток : 10,6 Мбит/сек
    Дата кодирования : UTC 2014-06-28 00:04:47
    Программа кодирования : mkvmerge v7.0.0 ('Where We Going') 64bit built on Jun 9 2014 15:16:27
    Библиотека кодирования : libebml v1.3.0 + libmatroska v1.4.1
    DURATION : 02:02:43.610000000
    NUMBER_OF_FRAMES : 919
    NUMBER_OF_BYTES : 29486
    _STATISTICS_WRITING_APP : mkvmerge v7.0.0 ('Where We Going') 64bit built on Jun 9 2014 15:16:27
    _STATISTICS_WRITING_DATE_UTC : 2014-06-28 00:04:47
    _STATISTICS_TAGS : BPS DURATION NUMBER_OF_FRAMES NUMBER_OF_BYTES

    Видео
    Идентификатор : 1
    Формат : AVC
    Формат/Информация : Advanced Video Codec
    Профиль формата : High@L4.1
    Параметр CABAC формата : Да
    Параметр ReFrames формата : 4 кадра
    Идентификатор кодека : V_MPEG4/ISO/AVC
    Продолжительность : 2 ч. 14 м.
    Битрейт : 8444 Кбит/сек
    Ширина : 1920 пикселей
    Высота : 800 пикселей
    Соотношение сторон : 2,40:1
    Режим частоты кадров : Постоянный
    Частота кадров : 59,880 кадров/сек
    Частота кадров в оригинале : 59,940 кадров/сек
    Цветовое пространство : YUV
    Субдискретизация насыщенности : 4:2:0
    Битовая глубина : 8 бит
    Тип развёртки : Прогрессивная
    Бит/(Пиксели*Кадры) : 0.092
    Размер потока : 7,91 Гбайт (80%)
    Библиотека кодирования : x264 core 130 r2273 b3065e6
    Настройки программы : cabac=1 / ref=4 / deblock=1:-1:-1 / analyse=0x3:0 / me=umh / subme=9 / psy=1 / psy_rd=1.00:0.10 / mixed_ref=1 / me_range=24 / chroma_me=0 / trellis=1 / 8x8dct=1 / cqm=0 / deadzone=21,11 / fast_pskip=0 / chroma_qp_offset=-3 / threads=12 / lookahead_threads=1 / sliced_threads=0 / nr=0 / decimate=0 / interlaced=0 / bluray_compat=0 / constrained_intra=0 / bframes=5 / b_pyramid=2 / b_adapt=2 / b_bias=0 / direct=1 / weightb=1 / open_gop=0 / weightp=2 / keyint=599 / keyint_min=59 / scenecut=40 / intra_refresh=0 / rc=crf / mbtree=0 / crf=18.0 / qcomp=0.60 / qpmin=0 / qpmax=69 / qpstep=4 / ip_ratio=1.40 / pb_ratio=1.30 / aq=1:0.90
    Язык : English
    Default : Да
    Forced : Нет
    DURATION : 02:14:05.930000000
    NUMBER_OF_FRAMES : 482273
    NUMBER_OF_BYTES : 8699915430
    _STATISTICS_WRITING_APP : mkvmerge v7.0.0 ('Where We Going') 64bit built on Jun 9 2014 15:16:27
    _STATISTICS_WRITING_DATE_UTC : 2014-06-28 00:04:47
    _STATISTICS_TAGS : BPS DURATION NUMBER_OF_FRAMES NUMBER_OF_BYTES

    Аудио #1
    Идентификатор : 2
    Формат : AC-3
    Формат/Информация : Audio Coding 3
    Расширение режима : CM (complete main)
    Параметр Endianness формата : Big
    Идентификатор кодека : A_AC3
    Продолжительность : 2 ч. 14 м.
    Вид битрейта : Постоянный
    Битрейт : 640 Кбит/сек
    Каналы : 6 каналов
    Расположение каналов : Front: L C R, Side: L R, LFE
    Частота : 48,0 КГц
    Битовая глубина : 16 бит
    Метод сжатия : С потерями
    Размер потока : 614 Мбайт (6%)
    Заголовок : Dub+MVO
    Язык : Russian
    Default : Да
    Forced : Нет

    Аудио #2
    Идентификатор : 3
    Формат : AC-3
    Формат/Информация : Audio Coding 3
    Расширение режима : CM (complete main)
    Параметр Endianness формата : Big
    Идентификатор кодека : A_AC3
    Продолжительность : 2 ч. 14 м.
    Вид битрейта : Постоянный
    Битрейт : 640 Кбит/сек
    Каналы : 6 каналов
    Расположение каналов : Front: L C R, Side: L R, LFE
    Частота : 48,0 КГц
    Битовая глубина : 16 бит
    Метод сжатия : С потерями
    Размер потока : 614 Мбайт (6%)
    Заголовок : MVO
    Язык : Russian
    Default : Нет
    Forced : Нет

    Аудио #3
    Идентификатор : 4
    Формат : AC-3
    Формат/Информация : Audio Coding 3
    Расширение режима : CM (complete main)
    Параметр Endianness формата : Big
    Идентификатор кодека : A_AC3
    Продолжительность : 2 ч. 14 м.
    Вид битрейта : Постоянный
    Битрейт : 640 Кбит/сек
    Каналы : 6 каналов
    Расположение каналов : Front: L C R, Side: L R, LFE
    Частота : 48,0 КГц
    Битовая глубина : 16 бит
    Метод сжатия : С потерями
    Размер потока : 614 Мбайт (6%)
    Заголовок : Original
    Язык : English
    Default : Нет
    Forced : Нет

    Текст #1
    Идентификатор : 5
    Формат : UTF-8
    Идентификатор кодека : S_TEXT/UTF8
    Идентификатор кодека/Информация : UTF-8 Plain Text
    Заголовок : Full
    Язык : Russian
    Default : Нет
    Forced : Нет

    Текст #2
    Идентификатор : 6
    Формат : UTF-8
    Идентификатор кодека : S_TEXT/UTF8
    Идентификатор кодека/Информация : UTF-8 Plain Text
    Заголовок : Full
    Язык : English
    Default : Нет
    Forced : Нет

    Меню
    00:00:00.000 : en:The Necromongers
    00:02:39.325 : en:Hard Bounty
    00:07:05.508 : en:Back to Civilization
    00:11:25.643 : en:A Fighting Chance
    00:15:31.805 : en:A True Furyan
    00:20:58.757 : en:Attack of the Necromongers
    00:27:11.713 : en:Lensing & Cleansing
    00:31:27.302 : en:The Lord Marshal's Offer
    00:38:52.330 : en:Mind Regression
    00:43:32.568 : en:Caught
    00:47:18.418 : en:You Can Keep What You Kill
    00:53:38.340 : en:Welcome to Crematoria
    01:01:36.818 : en:Jack's Dead...
    01:04:29.824 : en:A Private War
    01:08:45.579 : en:Feeding Time
    01:11:43.173 : en:Two Killers
    01:17:19.051 : en:Good News & Bad News
    01:22:50.006 : en:Running the Surface
    01:29:05.131 : en:The Big Heat
    01:32:42.473 : en:The Better Killer
    01:41:13.650 : en:This Is Your Chance
    01:44:28.220 : en:What Are the Odds?
    01:48:15.197 : en:The Enemy Within
    01:53:18.583 : en:Convert or Fall
    01:57:02.682 : en:The Soul of a Furyan
    02:00:00.693 : en:Kill the Beast
    02:03:05.753 : en:At the Feet of an Outlaw
    02:04:08.065 : en:End Titles

    Скриншоты:

    Каталог Новинок (Фильмы-трейлеры, Игры, Сериалы, Мультфильмы)

    © Оформление by Raven
  • Риддик / Riddick
    «Лучший способ отомстить - остаться в живых»

    Год выпуска: 2013
    Страна: США, Великобритания
    Жанр:фантастика, боевик, триллер
    Продолжительность:02:06:48
    Перевод:Дубляж+ Двухголосный закадровый на вставки
    Субтитры: Rus (полные), Eng (полные)
    Режиссер:Дэвид Туи / David Twohy

  • В ролях:

    Вин Дизель (Riddick), Хорди Молья (Santana), Мэтью Нэйбл (Boss Johns), Кэти Сакхофф (Dahl), Дэйв Батиста (Diaz), Букем Вудбайн (Moss), Рауль Трухильо (Lockspur), Конрад Пла (Vargas), Дэнни Бланко (Falco), Карл Урбан (Vaako), Ной Дэнби (Nunez), Нил Напье (Rubio)

  • Описание:
    Преданный своими и брошенный умирать на пустынной планете, Риддик сражается с хищниками за жизнь и становится сильнее и опаснее себя прежнего. Открывшие на него охоту галактические наемники оказываются пешками в грандиозном плане отмщения. С врагами, возникающими на его пути тогда, когда это нужно самому Риддику, он начинает поход во имя мести, чтобы в конечном счете вернуться на родную Фурию и спасти ее от уничтожения.

  • Мировая премьера:4 сентября 2013


      Качество: BDRip 1080p
      Формат:MKV
      Видео кодек: AVC
      Аудио кодек:AC3
      Видео: ~8221 kb/s / 1920*800 / 59,940 кадров/сек
      Аудио 1 Русский: AC3 5.1, 384 kb/s, Дубляж + DVD-Paradox на вставки
      Аудио 2 Английский: AC3 5.1, 640 kb/s 48,0 КГц


    Код:

    Общее
    Уникальный идентификатор : 213820777338502344274339851317771969323 (0xA0DC623F7602E85A8134ADDDA647232B)
    Полное имя : F:\Риддик 1080p 60fps\Риддик 3 1080p 60fps.mkv
    Формат : Matroska
    Версия формата : Version 4 / Version 2
    Размер файла : 8,35 Гбайт
    Продолжительность : 2 ч. 6 м.
    Общий поток : 9433 Кбит/сек
    Дата кодирования : UTC 2014-06-28 01:07:25
    Программа кодирования : mkvmerge v7.0.0 ('Where We Going') 64bit built on Jun 9 2014 15:16:27
    Библиотека кодирования : libebml v1.3.0 + libmatroska v1.4.1
    Обложка : Yes
    DURATION : 02:01:18.403000000
    NUMBER_OF_FRAMES : 1184
    NUMBER_OF_BYTES : 32853
    _STATISTICS_WRITING_APP : mkvmerge v7.0.0 ('Where We Going') 64bit built on Jun 9 2014 15:16:27
    _STATISTICS_WRITING_DATE_UTC : 2014-06-28 01:07:25
    _STATISTICS_TAGS : BPS DURATION NUMBER_OF_FRAMES NUMBER_OF_BYTES

    Видео
    Идентификатор : 1
    Формат : AVC
    Формат/Информация : Advanced Video Codec
    Профиль формата : High@L4.1
    Параметр CABAC формата : Да
    Параметр ReFrames формата : 4 кадра
    Идентификатор кодека : V_MPEG4/ISO/AVC
    Продолжительность : 2 ч. 6 м.
    Битрейт : 8221 Кбит/сек
    Ширина : 1920 пикселей
    Высота : 800 пикселей
    Соотношение сторон : 2,40:1
    Режим частоты кадров : Постоянный
    Частота кадров : 59,880 кадров/сек
    Частота кадров в оригинале : 59,940 кадров/сек
    Цветовое пространство : YUV
    Субдискретизация насыщенности : 4:2:0
    Битовая глубина : 8 бит
    Тип развёртки : Прогрессивная
    Бит/(Пиксели*Кадры) : 0.089
    Размер потока : 7,28 Гбайт (87%)
    Библиотека кодирования : x264 core 130 r2273 b3065e6
    Настройки программы : cabac=1 / ref=4 / deblock=1:-1:-1 / analyse=0x3:0 / me=umh / subme=9 / psy=1 / psy_rd=1.00:0.10 / mixed_ref=1 / me_range=24 / chroma_me=0 / trellis=1 / 8x8dct=1 / cqm=0 / deadzone=21,11 / fast_pskip=0 / chroma_qp_offset=-3 / threads=12 / lookahead_threads=1 / sliced_threads=0 / nr=0 / decimate=0 / interlaced=0 / bluray_compat=0 / constrained_intra=0 / bframes=5 / b_pyramid=2 / b_adapt=2 / b_bias=0 / direct=1 / weightb=1 / open_gop=0 / weightp=2 / keyint=599 / keyint_min=59 / scenecut=40 / intra_refresh=0 / rc=crf / mbtree=0 / crf=18.0 / qcomp=0.60 / qpmin=0 / qpmax=69 / qpstep=4 / ip_ratio=1.40 / pb_ratio=1.30 / aq=1:0.90
    Язык : English
    Default : Да
    Forced : Нет
    DURATION : 02:06:47.541000000
    NUMBER_OF_FRAMES : 455996
    NUMBER_OF_BYTES : 7991659259
    _STATISTICS_WRITING_APP : mkvmerge v7.0.0 ('Where We Going') 64bit built on Jun 9 2014 15:16:27
    _STATISTICS_WRITING_DATE_UTC : 2014-06-28 01:07:25
    _STATISTICS_TAGS : BPS DURATION NUMBER_OF_FRAMES NUMBER_OF_BYTES

    Аудио #1
    Идентификатор : 2
    Формат : AC-3
    Формат/Информация : Audio Coding 3
    Расширение режима : CM (complete main)
    Параметр Endianness формата : Big
    Идентификатор кодека : A_AC3
    Продолжительность : 2 ч. 6 м.
    Вид битрейта : Постоянный
    Битрейт : 384 Кбит/сек
    Каналы : 6 каналов
    Расположение каналов : Front: L C R, Side: L R, LFE
    Частота : 48,0 КГц
    Битовая глубина : 16 бит
    Метод сжатия : С потерями
    Размер потока : 348 Мбайт (4%)
    Заголовок : Dub+MVO
    Язык : Russian
    Default : Да
    Forced : Нет

    Аудио #2
    Идентификатор : 3
    Формат : AC-3
    Формат/Информация : Audio Coding 3
    Расширение режима : CM (complete main)
    Параметр Endianness формата : Big
    Идентификатор кодека : A_AC3
    Продолжительность : 2 ч. 6 м.
    Вид битрейта : Постоянный
    Битрейт : 640 Кбит/сек
    Каналы : 6 каналов
    Расположение каналов : Front: L C R, Side: L R, LFE
    Частота : 48,0 КГц
    Битовая глубина : 16 бит
    Метод сжатия : С потерями
    Размер потока : 580 Мбайт (7%)
    Заголовок : Original
    Язык : English
    Default : Нет
    Forced : Нет

    Текст #1
    Идентификатор : 4
    Формат : UTF-8
    Идентификатор кодека : S_TEXT/UTF8
    Идентификатор кодека/Информация : UTF-8 Plain Text
    Заголовок : Full
    Язык : Russian
    Default : Нет
    Forced : Нет

    Текст #2
    Идентификатор : 5
    Формат : UTF-8
    Идентификатор кодека : S_TEXT/UTF8
    Идентификатор кодека/Информация : UTF-8 Plain Text
    Заголовок : Full
    Язык : English
    Default : Нет
    Forced : Нет

    Меню
    00:00:00.000 : en:Chapter 01
    00:05:35.418 : en:Chapter 02
    00:12:10.521 : en:Chapter 03
    00:23:27.364 : en:Chapter 04
    00:27:56.424 : en:Chapter 05
    00:32:11.220 : en:Chapter 06
    00:38:03.698 : en:Chapter 07
    00:44:20.282 : en:Chapter 08
    00:48:40.876 : en:Chapter 09
    00:56:19.667 : en:Chapter 10
    01:01:16.672 : en:Chapter 11
    01:07:35.092 : en:Chapter 12
    01:15:23.435 : en:Chapter 13
    01:19:58.835 : en:Chapter 14
    01:26:51.831 : en:Chapter 15
    01:31:27.106 : en:Chapter 16
    01:39:32.716 : en:Chapter 17
    01:45:32.701 : en:Chapter 18
    01:53:45.652 : en:Chapter 19
    02:02:56.160 : en:Chapter 20

    Скриншоты:

    Каталог Новинок (Фильмы-трейлеры, Игры, Сериалы, Мультфильмы)

    © Оформление by Raven
  • О качестве рипов с 60 FPS + FAQ (Жмите) Как сделать видео 60fps? (Жмите)


    pb.wtf



    Скачать Риддик через торрент https://pic.kartinco.top/new/img/2014-07/30/vqgv6vwp9fs3j6256b4om3059.jpg Скачать, смотреть онлайн Риддик бесплантно в хорошем качестве Описание:В недалеком будущем космический корабль терпит бедствие, в результате чего совершает вынужденную посадку на отдаленной планете. Но ... 9.9 10 45
    Info! Золотая раздача, скачанное не засчитывается.
    Торрент: Зарегистрирован [2014-07-30 09:29] · скачан: 793 раз
    Статус: √ проверено
    Размер: 28.82 GB
    Как cкачать? Как скачать Риддик через торрент | UTorrent

    % Раздел Тема Автор DL S | L
    Сборники (HD Video) [ 44.55 GB ] Риддик: Трилогия / Riddick: Trilogy [2000-2013 BDRip 1080p] DUB+MVO+DVO+AVO bober100 Скачать
    1 | 0
    Фильмы (WEB-DL 720p, 1080p) [ 8.67 GB ] Хроники Риддика / The Chronicles of Riddick [2004 WEB-DL 1080p ] DUB [Мосфильм-Мастер] bober100 Скачать
    2 | 0
    Фильмы 2001-2005 [ 2.05 GB ] Хроники Риддика / The Chronicles of Riddick [2004 . HDRip-AVC Полное Дублирование ] akcent Скачать
    1 | 1
    Фильмы 2001-2005 [ 2.05 GB ] Хроники Риддика / The Chronicles of Riddick [2004 DVDRip] Anonymous Скачать
    1 | 0
    Фильмы (Blu-ray, BD-Remux, HDDVD) [ 39.36 GB ] Риддик / Riddick [2013 BDRemux 1080p] DUB + 3xAVO [Расширенная Версия] sheker187 Скачать
    1 | 0
    Сборники и Сиквелы (48-60 fps) [ 20.08 GB ] Риддик / Riddick [Дэвид Туи / David Twohy BDRip 720p / 60 FPS / Director's Cut / Трилогия] KEYS Скачать
    2 | 0
    Видео (iPhone, iPod Touch) [ 3.6 GB ] Риддик / Riddick [2013 BDRip 1080p ] makarevich Скачать
    1 | 0

    28-11-2019 20:33  

    Отключить всю рекламу на сайте

    30-07-2014 13:09 Риддик Скачать торрент  

    Лови золото!!!pb.wtf



    01-08-2014 05:57 Риддик Скачать торрент  

    Респект автору!!! Обожаю пересматривать любимые фильмы в офигенном качестве)

    Надеюсь вы не боитесь темноты? Свет режет мне глаза)))pb.wtf



    05-08-2014 14:52 Риддик Скачать торрент  

    Картинка красивая.
    Перевод плохой - портит все впечатление.pb.wtf



    05-08-2014 16:13 Риддик Скачать торрент  

    megafps, там на выбор 2 перевода дубляж и многоголосый...всех устраивает , а Вас нет..Я Вас расстрою лучшего то перевода нет в природе)))) sarcasticpb.wtf



    08-08-2014 15:54 Риддик Скачать торрент  

    Перевод Гоблина?pb.wtf



    26-03-2015 16:49 Риддик Скачать торрент  

    ехал на жд,в вагоне было вайфай нашел там риддика. 3 часть была только. посмотрел ,зацепило,реально. спасибо раздающим.pb.wtf



    26-03-2015 16:53 Риддик Скачать торрент  

    evil4ever писал(а):

    Свет режет мне глаза)))

    очки одень.))))pb.wtf



    05-05-2015 19:22 Риддик Скачать торрент  

    Интересно, а Риддики ещё будут? В будущем. sarcastic (Это так, мысли вслух) :pleasantry:pb.wtf



    06-05-2015 08:07 Риддик Скачать торрент  

    praslik писал(а):

    Интересно, а Риддики ещё будут? В будущем. sarcastic (Это так, мысли вслух) :pleasantry:

    думаю, да)))pb.wtf



    09-02-2018 07:00 Риддик Скачать торрент  

    Авторская группа в ВК
    Подпишите пожалуйста.pb.wtf



      Дорогой пользователь! Огромная просьба, поблагодарите релизера, оцените раздачу и оставьте свои комментарий, если Вы скачали Риддик через торрент бесплатно!
      Комментировать посты могут только пользователи прошедшие не сложную регистрацию
      Показать сообщения:    

      Риддик через торрент
      Скачать бесплатно Риддик
      Риддик скачать торрент
      Риддик смотреть онлайн
      Cкачать фильм Риддик бесплатно
      Риддик скачать торрент в хорошем качестве
      Риддик смотреть онлайн бесплатно в хорошем качестве


      Вы не можете начинать темы
      Вы не можете отвечать на сообщения
      Вы не можете редактировать свои сообщения
      Вы не можете удалять свои сообщения
      Вы не можете голосовать в опросах
      Вы не можете прикреплять файлы к сообщениям
      Вы можете скачивать файлы