Anonymous, добрый день, присоединяйтесь к нам в Telegram!, здесь всегда актуальный адрес сайта, оперативная поддержка и многое другое!

>

5.5

iTunes

7.4

iTunes

7.9

iTunes

1

7.7

1 сезон

6.8

iTunes

7.3

1 сезон

13

6.7

1 сезон

8.3

RePack

30

ULTIMATE

pack

9.9

Лицензия

ВАЖНО

ИГРА 18+

pack

7.3

RePack

MK11

7.7

RePack

jed

7.8

RePack

fifa19

8.5

RePack

RDR2

RePack

NEED FOR SPEED™ PAYBACK

4 сезон

9 сезон

Бесстыжие 9 сезон

Все сериалы

все сериалы на PB.wtf

RePack

FAR CRY 5

Anonymous, добрый день, мы катастрофически не успеваем собрать деньги на оплату серверов, помогите нам пожалуйста 5,10,15р., для нас важна любая помощь . В качестве благодарности мы отключим Вам всю рекламу на сайте (укажите свой ник в строку Ваше имя)!

×
  
Magnet ссылка

Люди в черном 1, 2, 3 / Men in Black I, II, III (Барри Зонненфельд / Barry Sonnenfeld) (1997, 2002, 2012 гг., фантастика, боевик, комедия, BDRip 1080p, DUB] 60fps pb.wtf

Люди в черном 1, 2, 3 через торрент pb.wtf

Раздают: 1 [ 0 KB/s ] Качают: 1 [ 0 KB/s ]
Размер: 34.89 GB | Добавлен: 7 лет 2 мес. назад | Торрент скачан:498 раз
Смотреть онлайн Люди в черном 1, 2, 3 | Скачать    Ребята, помогите собрать деньги на оплату серверов!!!

30-07-2014 09:11 Люди в черном 1, 2, 3 Скачать торрент  

Люди в черном: Трилогия / Men in black: Trilogy
Перед скачиванием обязательно проверьте Сэмплы на своем оборудовании.
В 2,5 раза больше кадров!
В 2,5 раза плавнее! (59,94 fps)
Приятного просмотра.
Люди в черном / Men in Black



Год выпуска: 1997
Страна: США
Жанр: фантастика, боевик, комедия
Продолжительность: 01:37:58
Перевод: Дублированный
Cубтитры: Rus (форс.), Rus (полные), Eng (полные)


Режиссер: Барри Зонненфельд / Barry Sonnenfeld

Сценарий: Лоуелл Каннингэм / Lowell Cunningham, Эд Соломон / Ed Solomon
Продюсер: Лори МакДональд / Laurie MacDonald, Уолтер Ф. Паркс / Walter F. Parkes, Стивен Р. Молен / Steven R. Molen, Грэхэм Плэйс / Graham Place, Стивен Спилберг / Steven Spielberg
Оператор: Дональд Питермен / Donald Peterman
Композитор: Дэнни Элфман / Danny Elfman


В ролях: Томми Ли Джонс (K), Уилл Смит (J / James Edwards), Винсент Д’Онофрио (Edgar), Линда Фиорентино (Laurel Weaver), Рип Торн (Zed), Тони Шэлуб (Jeebs), Шиван Фэллон (Beatrice), Майк Нассбаум (Gentle Rosenburg), Джон Грайз (Van Driver), Фредрик Лене (INS Agent Janus), Серхио Кальдерон (José), Карел Стрёйкен (Arquillian)


Описание: Они - это лучшая, последняя и единственная линия защиты Земли от отбросов вселенной. Их работа секретна, их оружие совершенно, им нет равных, они не оставляют следов. Они - это Люди в черном.






Качество видео: BDRip 1080p
Формат: H.264
Видео кодек: AVC
Аудио кодек: АС3
Видео: ~16200 kb/s / 1920*1040 / 59,940 кадров/сек
Аудио 1 Русский: AC3 5.1, 448 kb/s, Дубляж (в контейнере)
Аудио 2 Английский: AC3 5.1, 640 kb/s (в контейнере)
Аудио 3 Русский: AC3 5.1, 448 kb/s, R5 (отдельно)
Аудио 4 Русский: AC3 5.1, 640 kb/s, Карусель (отдельно)
Аудио 5 Русский: AC3 5.1, 640 kb/s, А.Гаврилов (отдельно)
Аудио 6 Русский: AC3 5.1, 640 kb/s, Ю.Живов (отдельно)
Аудио 7 Русский: AC3 2.0, 320 kb/s, Хрусталев (VHS) (отдельно)
Общее
Уникальный идентификатор : 207812839384483950016367719021233434618 (0x9C574C097E8963719627CA1584C5EFFA)
Полное имя : \\Films\Public\На готове\60 fps\Люди в черном 1080p 60fps\Люди в черном 1\Люди в черном 1 1080p 60fps.mkv
Формат : Matroska
Версия формата : Version 4 / Version 2
Размер файла : 12,1 Гбайт
Продолжительность : 1 ч. 37 м.
Общий поток : 17,7 Мбит/сек
Дата кодирования : UTC 2014-06-14 11:00:36
Программа кодирования : mkvmerge v7.0.0 ('Where We Going') 64bit built on Jun 9 2014 15:16:27
Библиотека кодирования : libebml v1.3.0 + libmatroska v1.4.1
_STATISTICS_WRITING_APP : mkvmerge v7.0.0 ('Where We Going') 64bit built on Jun 9 2014 15:16:27
_STATISTICS_WRITING_DATE_UTC : 2014-06-14 11:00:36
_STATISTICS_TAGS : BPS DURATION NUMBER_OF_FRAMES NUMBER_OF_BYTES
DURATION : 01:37:58.880000000
NUMBER_OF_FRAMES : 183715
NUMBER_OF_BYTES : 470310400

Видео
Идентификатор : 1
Формат : AVC
Формат/Информация : Advanced Video Codec
Профиль формата : High@L4.1
Параметр CABAC формата : Да
Параметр ReFrames формата : 4 кадра
Идентификатор кодека : V_MPEG4/ISO/AVC
Продолжительность : 1 ч. 37 м.
Битрейт : 16,2 Мбит/сек
Ширина : 1920 пикселей
Высота : 1040 пикселей
Соотношение сторон : 1,85:1
Режим частоты кадров : Постоянный
Частота кадров : 59,880 кадров/сек
Частота кадров в оригинале : 59,940 кадров/сек
Цветовое пространство : YUV
Субдискретизация насыщенности : 4:2:0
Битовая глубина : 8 бит
Тип развёртки : Прогрессивная
Бит/(Пиксели*Кадры) : 0.136
Размер потока : 11,1 Гбайт (92%)
Библиотека кодирования : x264 core 130 r2273 b3065e6
Настройки программы : cabac=1 / ref=4 / deblock=1:-1:-1 / analyse=0x3:0 / me=umh / subme=9 / psy=1 / psy_rd=1.00:0.10 / mixed_ref=1 / me_range=24 / chroma_me=0 / trellis=1 / 8x8dct=1 / cqm=0 / deadzone=21,11 / fast_pskip=0 / chroma_qp_offset=-3 / threads=12 / lookahead_threads=1 / sliced_threads=0 / nr=0 / decimate=0 / interlaced=0 / bluray_compat=0 / constrained_intra=0 / bframes=5 / b_pyramid=2 / b_adapt=2 / b_bias=0 / direct=1 / weightb=1 / open_gop=0 / weightp=2 / keyint=599 / keyint_min=59 / scenecut=40 / intra_refresh=0 / rc=crf / mbtree=0 / crf=18.0 / qcomp=0.60 / qpmin=0 / qpmax=69 / qpstep=4 / ip_ratio=1.40 / pb_ratio=1.30 / aq=1:0.90
Язык : English
Default : Да
Forced : Нет
DURATION : 01:37:58.846000000
NUMBER_OF_FRAMES : 352378
NUMBER_OF_BYTES : 12169783704
_STATISTICS_WRITING_APP : mkvmerge v7.0.0 ('Where We Going') 64bit built on Jun 9 2014 15:16:27
_STATISTICS_WRITING_DATE_UTC : 2014-06-14 11:00:36
_STATISTICS_TAGS : BPS DURATION NUMBER_OF_FRAMES NUMBER_OF_BYTES

Аудио #1
Идентификатор : 2
Формат : AC-3
Формат/Информация : Audio Coding 3
Расширение режима : CM (complete main)
Параметр Endianness формата : Big
Идентификатор кодека : A_AC3
Продолжительность : 1 ч. 37 м.
Вид битрейта : Постоянный
Битрейт : 448 Кбит/сек
Каналы : 6 каналов
Расположение каналов : Front: L C R, Side: L R, LFE
Частота : 48,0 КГц
Битовая глубина : 16 бит
Метод сжатия : С потерями
Размер потока : 314 Мбайт (3%)
Заголовок : Dub
Язык : Russian
Default : Да
Forced : Нет

Аудио #2
Идентификатор : 6
Формат : AC-3
Формат/Информация : Audio Coding 3
Расширение режима : CM (complete main)
Параметр Endianness формата : Big
Идентификатор кодека : A_AC3
Продолжительность : 1 ч. 37 м.
Вид битрейта : Постоянный
Битрейт : 640 Кбит/сек
Каналы : 6 каналов
Расположение каналов : Front: L C R, Side: L R, LFE
Частота : 48,0 КГц
Битовая глубина : 16 бит
Метод сжатия : С потерями
Размер потока : 449 Мбайт (4%)
Заголовок : Original
Язык : English
Default : Нет
Forced : Нет

Текст #1
Идентификатор : 3
Формат : UTF-8
Идентификатор кодека : S_TEXT/UTF8
Идентификатор кодека/Информация : UTF-8 Plain Text
Заголовок : Forced
Язык : Russian
Default : Да
Forced : Нет

Текст #2
Идентификатор : 4
Формат : UTF-8
Идентификатор кодека : S_TEXT/UTF8
Идентификатор кодека/Информация : UTF-8 Plain Text
Заголовок : Full
Язык : Russian
Default : Нет
Forced : Нет

Текст #3
Идентификатор : 5
Формат : UTF-8
Идентификатор кодека : S_TEXT/UTF8
Идентификатор кодека/Информация : UTF-8 Plain Text
Заголовок : Full
Язык : English
Default : Нет
Forced : Нет

Меню
00:00:00.000 : en:Chapter 00
00:09:46.419 : en:Chapter 01
00:12:46.807 : en:Chapter 02
00:18:12.341 : en:Chapter 03
00:25:31.446 : en:Chapter 04
00:29:14.544 : en:Chapter 05
00:37:19.195 : en:Chapter 06
00:43:18.554 : en:Chapter 07
00:49:58.328 : en:Chapter 08
00:54:29.391 : en:Chapter 09
01:00:51.522 : en:Chapter 10
01:06:24.689 : en:Chapter 11
01:08:55.548 : en:Chapter 12
01:14:56.909 : en:Chapter 13
01:19:39.149 : en:Chapter 14
01:29:49.634 : en:Chapter 15


Люди в черном 2 / Men in Black 2



Год выпуска: 2002
Страна: США
Жанр: фантастика, боевик, комедия
Продолжительность: 01:28:08
Перевод: Дублированный
Cубтитры: Rus (форс.), Rus (полные), Eng (полные)


Режиссер: Барри Зонненфельд / Barry Sonnenfeld

Сценарий: Роберт Гордон / Robert Gordon, Бэрри Фэнаро / Barry Fanaro, Лоуелл Каннингэм / Lowell Cunningham
Продюсер: Лори МакДональд / Laurie MacDonald, Уолтер Ф. Паркс / Walter F. Parkes, Марк Хеймс / Marc Haimes, Стефани Кемп / Stephanie Kemp, Грэхэм Плэйс / Graham Place
Оператор: Грег Гардинер / Greg Gardiner
Композитор: Дэнни Элфман / Danny Elfman


В ролях: Томми Ли Джонс (Kevin Brown, Agent Kay,), Уилл Смит (Agent Jay), Лара Флинн Бойл (Serleena), Джонни Ноксвил (Scrad / Charlie), Розарио Доусон (Laura Vasquez), Тони Шэлуб (Jack Jeebs), Рип Торн (Zed), Патрик Варбертон (Agent T), Джек Келер (Ben), Дэвид Кросс (Newton), Коломба Якобсен-Дерстин (Hailey), Питер Спеллос (Captain Larry Bridgewater, The Motorman)


Описание: «Люди в черном 2» продолжает рассказ о приключениях двух элитных полицейских - агента Кея и агента Джея среди инопланетян. Со времени их предыдущих похождений прошло четыре года.
Все эти годы агент Кей вел размеренный образ жизни, в то время как агент Джей продолжал бесстрашно трудиться в рядах самой секретной организации в мире. Расследуя самое обычное дело, агент Джей натыкается на следы дьявольски изощренного заговора, задуманного Серлиной, злобным монстром, обитающим на Земле в образе сексуальнейшей модели.
Когда события принимают угрожающий оборот, агенту Джею приходится обратиться за помощью к своему бывшему напарнику, который мирно трудится в Почтовом Департаменте. За короткое время агенту Джею надо убедить агента Кея помочь ему - ведь только он может помочь спасти Землю от порабощения и уничтожения.






Качество видео: BDRip 1080
Формат: MKV
Видео кодек: AVC
Аудио кодек: АС3
Видео: ~10400 kb/s / 1920*1040 / 59,940 кадров/сек
Аудио 1 Русский: AC3 5.1, 640 kb/s, Дубляж (в контейнере)
Аудио 2 Английский: AC3 5.1, 640 kb/s (в контейнере)
Аудио 3 Русский: AC3 5.1, 640 kb/s, Карусель (отдельно)
Аудио 4 Русский: AC3 5.1, 640 kb/s, А.Гаврилов (отдельно)
Аудио 5 Русский: AC3 5.1, 640 kb/s, Ю.Живов (отдельно)
Аудио 6 Русский: AC3 5.1, 640 kb/s, П.Гланц (отдельно)
Общее
Уникальный идентификатор : 245649278953962207214257592221370164483 (0xB8CE5489000C072886543EADCEA42503)
Полное имя : \\Films\Public\На готове\60 fps\Люди в черном 1080p 60fps\Люди в черном 2\Люди в черном 2 1080p 60fps.mkv
Формат : Matroska
Версия формата : Version 4 / Version 2
Размер файла : 7,36 Гбайт
Продолжительность : 1 ч. 28 м.
Общий поток : 12,0 Мбит/сек
Дата кодирования : UTC 2014-06-14 15:54:32
Программа кодирования : mkvmerge v7.0.0 ('Where We Going') 64bit built on Jun 9 2014 15:16:27
Библиотека кодирования : libebml v1.3.0 + libmatroska v1.4.1
DURATION : 01:24:07.500000000
NUMBER_OF_FRAMES : 1158
NUMBER_OF_BYTES : 44461
_STATISTICS_WRITING_APP : mkvmerge v7.0.0 ('Where We Going') 64bit built on Jun 9 2014 15:16:27
_STATISTICS_WRITING_DATE_UTC : 2014-06-14 15:54:32
_STATISTICS_TAGS : BPS DURATION NUMBER_OF_FRAMES NUMBER_OF_BYTES

Видео
Идентификатор : 1
Формат : AVC
Формат/Информация : Advanced Video Codec
Профиль формата : High@L4.1
Параметр CABAC формата : Да
Параметр ReFrames формата : 4 кадра
Идентификатор кодека : V_MPEG4/ISO/AVC
Продолжительность : 1 ч. 28 м.
Битрейт : 10,4 Мбит/сек
Ширина : 1920 пикселей
Высота : 1040 пикселей
Соотношение сторон : 1,85:1
Режим частоты кадров : Постоянный
Частота кадров : 59,880 кадров/сек
Частота кадров в оригинале : 59,940 кадров/сек
Цветовое пространство : YUV
Субдискретизация насыщенности : 4:2:0
Битовая глубина : 8 бит
Тип развёртки : Прогрессивная
Бит/(Пиксели*Кадры) : 0.087
Размер потока : 6,43 Гбайт (87%)
Библиотека кодирования : x264 core 130 r2273 b3065e6
Настройки программы : cabac=1 / ref=4 / deblock=1:-1:-1 / analyse=0x3:0 / me=umh / subme=9 / psy=1 / psy_rd=1.00:0.10 / mixed_ref=1 / me_range=24 / chroma_me=0 / trellis=1 / 8x8dct=1 / cqm=0 / deadzone=21,11 / fast_pskip=0 / chroma_qp_offset=-3 / threads=12 / lookahead_threads=1 / sliced_threads=0 / nr=0 / decimate=0 / interlaced=0 / bluray_compat=0 / constrained_intra=0 / bframes=5 / b_pyramid=2 / b_adapt=2 / b_bias=0 / direct=1 / weightb=1 / open_gop=0 / weightp=2 / keyint=599 / keyint_min=59 / scenecut=40 / intra_refresh=0 / rc=crf / mbtree=0 / crf=18.0 / qcomp=0.60 / qpmin=0 / qpmax=69 / qpstep=4 / ip_ratio=1.40 / pb_ratio=1.30 / aq=1:0.90
Язык : English
Default : Да
Forced : Нет
DURATION : 01:28:08.222000000
NUMBER_OF_FRAMES : 316976
NUMBER_OF_BYTES : 7054122775
_STATISTICS_WRITING_APP : mkvmerge v7.0.0 ('Where We Going') 64bit built on Jun 9 2014 15:16:27
_STATISTICS_WRITING_DATE_UTC : 2014-06-14 15:54:32
_STATISTICS_TAGS : BPS DURATION NUMBER_OF_FRAMES NUMBER_OF_BYTES

Аудио #1
Идентификатор : 2
Формат : AC-3
Формат/Информация : Audio Coding 3
Расширение режима : CM (complete main)
Параметр Endianness формата : Big
Идентификатор кодека : A_AC3
Продолжительность : 1 ч. 28 м.
Вид битрейта : Постоянный
Битрейт : 640 Кбит/сек
Каналы : 6 каналов
Расположение каналов : Front: L C R, Side: L R, LFE
Частота : 48,0 КГц
Битовая глубина : 16 бит
Метод сжатия : С потерями
Размер потока : 403 Мбайт (5%)
Заголовок : Dub
Язык : Russian
Default : Да
Forced : Нет

Аудио #2
Идентификатор : 3
Формат : AC-3
Формат/Информация : Audio Coding 3
Расширение режима : CM (complete main)
Параметр Endianness формата : Big
Идентификатор кодека : A_AC3
Продолжительность : 1 ч. 28 м.
Вид битрейта : Постоянный
Битрейт : 640 Кбит/сек
Каналы : 6 каналов
Расположение каналов : Front: L C R, Side: L R, LFE
Частота : 48,0 КГц
Битовая глубина : 16 бит
Метод сжатия : С потерями
Размер потока : 403 Мбайт (5%)
Заголовок : Original
Язык : English
Default : Нет
Forced : Нет

Текст #1
Идентификатор : 4
Формат : UTF-8
Идентификатор кодека : S_TEXT/UTF8
Идентификатор кодека/Информация : UTF-8 Plain Text
Заголовок : Forced
Язык : Russian
Default : Да
Forced : Нет

Текст #2
Идентификатор : 5
Формат : UTF-8
Идентификатор кодека : S_TEXT/UTF8
Идентификатор кодека/Информация : UTF-8 Plain Text
Заголовок : Full
Язык : Russian
Default : Нет
Forced : Нет

Текст #3
Идентификатор : 6
Формат : UTF-8
Идентификатор кодека : S_TEXT/UTF8
Идентификатор кодека/Информация : UTF-8 Plain Text
Заголовок : Full
Язык : English
Default : Нет
Forced : Нет

Меню
00:00:00.000 : en:00:00:00.000
00:07:01.129 : en:00:07:01.129
00:13:20.716 : en:00:13:20.716
00:19:05.936 : en:00:19:05.936
00:24:23.170 : en:00:24:23.170
00:30:41.256 : en:00:30:41.256
00:34:59.388 : en:00:34:59.388
00:41:55.596 : en:00:41:55.596
00:48:13.974 : en:00:48:13.974
00:52:32.858 : en:00:52:32.858
00:57:32.824 : en:00:57:32.824
01:02:34.125 : en:01:02:34.125
01:06:20.434 : en:01:06:20.434
01:10:30.059 : en:01:10:30.059
01:13:54.847 : en:01:13:54.847
01:16:02.474 : en:01:16:02.474


Люди в черном 3 / Men in Black 3



Год выпуска: 2012
Страна: США
Жанр: фантастика, боевик, комедия
Продолжительность: 01:45:50
Перевод: Дублированный
Cубтитры: Rus (форс.), Rus (полные), Eng (полные)


Режиссер: Барри Зонненфельд / Barry Sonnenfeld

Сценарий: Этан Коэн / Etan Cohen, Лоуелл Каннингэм / Lowell Cunningham
Продюсер: Лори МакДональд / Laurie MacDonald, Уолтер Ф. Паркс / Walter F. Parkes, Дж. Мак Браун / G. Mac Brown, Джойс Кокс / Joyce Cox, Пол А. Левин / Paul A. Levin
Оператор: Билл Поуп / Bill Pope
Композитор: Дэнни Элфман / Danny Elfman


В ролях: Уилл Смит (Agent J), Джош Бролин (Young Agent K), Томми Ли Джонс (Agent K), Джемейн Клемент (Boris The Animal), Майкл Стулбарг (Griffin), Эмма Томпсон (Agent O), Элис Ив (Young Agent O), Майк Колтер (Colonel), Билл Хэйдер (Andy Warhol), Майкл Чернус (Jeffrey Price), Николь Шерзингер (Boris's Girlfriend), Дэвид Раш (Agent X)


Описание: Агент Джей узнает, что никакого защитного галактического щита, способного отразить иноземный удар, не существует. Агент Кей не построил его, потому что был убит в 1969 году. Агент Джей должен совершить путешествие во времени, чтобы спасти Землю и жизнь напарника.





Качество видео: BDRip 1080
Формат: MKV
Видео кодек: AVC
Аудио кодек: АС3
Видео:~14000 kb/s / 1920*1040 / 59,940 кадров/сек
Аудио 1 Русский: AC3 5.1, 640 kb/s, Дубляж (в контейнере)
Аудио 2 Английский: AC3 5.1, 640 kb/s (в контейнере)
Аудио 3 Русский: AC3 5.1, 640 kb/s, А.Гаврилов (отдельно)
Общее
Уникальный идентификатор : 211560857006134838819172169261685727941 (0x9F292392ACD21CD19358FC8F3EB0E2C5)
Полное имя : \\Films\Public\На готове\60 fps\Люди в черном 1080p 60fps\Люди в черном 3\Люди в черном 3 1080p 60fps.mkv
Формат : Matroska
Версия формата : Version 4 / Version 2
Размер файла : 11,6 Гбайт
Продолжительность : 1 ч. 45 м.
Общий поток : 15,6 Мбит/сек
Дата кодирования : UTC 2014-06-15 03:46:21
Программа кодирования : mkvmerge v7.0.0 ('Where We Going') 64bit built on Jun 9 2014 15:16:27
Библиотека кодирования : libebml v1.3.0 + libmatroska v1.4.1
_STATISTICS_WRITING_APP : mkvmerge v7.0.0 ('Where We Going') 64bit built on Jun 9 2014 15:16:27
_STATISTICS_WRITING_DATE_UTC : 2014-06-15 03:46:21
_STATISTICS_TAGS : BPS DURATION NUMBER_OF_FRAMES NUMBER_OF_BYTES
DURATION : 01:45:50.400000000
NUMBER_OF_FRAMES : 198450
NUMBER_OF_BYTES : 508032000

Видео
Идентификатор : 1
Формат : AVC
Формат/Информация : Advanced Video Codec
Профиль формата : High@L4.1
Параметр CABAC формата : Да
Параметр ReFrames формата : 4 кадра
Идентификатор кодека : V_MPEG4/ISO/AVC
Продолжительность : 1 ч. 45 м.
Битрейт : 14,0 Мбит/сек
Ширина : 1920 пикселей
Высота : 1040 пикселей
Соотношение сторон : 1,85:1
Режим частоты кадров : Постоянный
Частота кадров : 59,880 кадров/сек
Частота кадров в оригинале : 59,940 кадров/сек
Цветовое пространство : YUV
Субдискретизация насыщенности : 4:2:0
Битовая глубина : 8 бит
Тип развёртки : Прогрессивная
Бит/(Пиксели*Кадры) : 0.118
Размер потока : 10,4 Гбайт (90%)
Библиотека кодирования : x264 core 130 r2273 b3065e6
Настройки программы : cabac=1 / ref=4 / deblock=1:-1:-1 / analyse=0x3:0 / me=umh / subme=9 / psy=1 / psy_rd=1.00:0.10 / mixed_ref=1 / me_range=24 / chroma_me=0 / trellis=1 / 8x8dct=1 / cqm=0 / deadzone=21,11 / fast_pskip=0 / chroma_qp_offset=-3 / threads=12 / lookahead_threads=1 / sliced_threads=0 / nr=0 / decimate=0 / interlaced=0 / bluray_compat=0 / constrained_intra=0 / bframes=5 / b_pyramid=2 / b_adapt=2 / b_bias=0 / direct=1 / weightb=1 / open_gop=0 / weightp=2 / keyint=599 / keyint_min=59 / scenecut=40 / intra_refresh=0 / rc=crf / mbtree=0 / crf=18.0 / qcomp=0.60 / qpmin=0 / qpmax=69 / qpstep=4 / ip_ratio=1.40 / pb_ratio=1.30 / aq=1:0.90
Язык : English
Default : Да
Forced : Нет
DURATION : 01:45:50.367000000
NUMBER_OF_FRAMES : 380641
NUMBER_OF_BYTES : 11395779023
_STATISTICS_WRITING_APP : mkvmerge v7.0.0 ('Where We Going') 64bit built on Jun 9 2014 15:16:27
_STATISTICS_WRITING_DATE_UTC : 2014-06-15 03:46:21
_STATISTICS_TAGS : BPS DURATION NUMBER_OF_FRAMES NUMBER_OF_BYTES

Аудио #1
Идентификатор : 2
Формат : AC-3
Формат/Информация : Audio Coding 3
Расширение режима : CM (complete main)
Параметр Endianness формата : Big
Идентификатор кодека : A_AC3
Продолжительность : 1 ч. 45 м.
Вид битрейта : Постоянный
Битрейт : 640 Кбит/сек
Каналы : 6 каналов
Расположение каналов : Front: L C R, Side: L R, LFE
Частота : 48,0 КГц
Битовая глубина : 16 бит
Метод сжатия : С потерями
Размер потока : 484 Мбайт (4%)
Заголовок : Dub
Язык : Russian
Default : Да
Forced : Нет

Аудио #2
Идентификатор : 5
Формат : AC-3
Формат/Информация : Audio Coding 3
Расширение режима : CM (complete main)
Параметр Endianness формата : Big
Идентификатор кодека : A_AC3
Продолжительность : 1 ч. 45 м.
Вид битрейта : Постоянный
Битрейт : 640 Кбит/сек
Каналы : 6 каналов
Расположение каналов : Front: L C R, Side: L R, LFE
Частота : 48,0 КГц
Битовая глубина : 16 бит
Метод сжатия : С потерями
Размер потока : 484 Мбайт (4%)
Заголовок : Original
Язык : English
Default : Нет
Forced : Нет

Текст #1
Идентификатор : 3
Формат : UTF-8
Идентификатор кодека : S_TEXT/UTF8
Идентификатор кодека/Информация : UTF-8 Plain Text
Заголовок : Full
Язык : Russian
Default : Нет
Forced : Нет

Текст #2
Идентификатор : 4
Формат : UTF-8
Идентификатор кодека : S_TEXT/UTF8
Идентификатор кодека/Информация : UTF-8 Plain Text
Заголовок : Full
Язык : English
Default : Нет
Forced : Нет

Меню
00:00:00.000 : :Chapter 01
00:06:09.577 : :Chapter 02
00:11:27.478 : :Chapter 03
00:16:58.809 : :Chapter 04
00:22:36.229 : :Chapter 05
00:31:24.632 : :Chapter 06
00:37:36.420 : :Chapter 07
00:42:43.018 : :Chapter 08
00:48:55.849 : :Chapter 09
00:53:58.235 : :Chapter 10
00:59:27.772 : :Chapter 11
01:05:52.782 : :Chapter 12
01:11:56.312 : :Chapter 13
01:19:50.619 : :Chapter 14
01:27:57.063 : :Chapter 15
01:35:30.683 : :Chapter 16


Оформления by -=Cherry=-
О качестве рипов с 60 FPS + FAQ (Жмите) Как сделать видео 60fps? (Жмите)


pb.wtf



Скачать Люди в черном 1, 2, 3 через торрент https://pic1.kartinco.top/images/21/sv3du6sxn9.png Скачать, смотреть онлайн Люди в черном 1, 2, 3 бесплантно в хорошем качестве Описание: Они - это лучшая, последняя и единственная линия защиты Земли от отбросов вселенной. Их работа секретна, их оружие совершенно, ... 9.8 10 24
Info! Золотая раздача, скачанное не засчитывается.
Торрент: Зарегистрирован [2014-07-30 09:29] · скачан: 498 раз
Статус: √ проверено
Размер: 34.89 GB
Как cкачать? Как скачать Люди в черном 1, 2, 3 через торрент | UTorrent

% Раздел Тема Автор DL S | L
Сборники и Сиквелы (48-60 fps) [ 10.61 GB ] Люди в черном 1 2 3 / Men in Black I II III (1997 2002 2012 г BDRip 720p DUB] 60fps slaventi-69 Скачать
2 | 0

28-11-2019 20:33  

Отключить всю рекламу на сайте

13-12-2014 03:04 Люди в черном 1, 2, 3 Скачать торрент  

встаньте на раздачу народpb.wtf



09-02-2018 06:52 Люди в черном 1, 2, 3 Скачать торрент  

Авторская группа в ВК
Добавьте пожалуйста.pb.wtf



    Дорогой пользователь! Огромная просьба, поблагодарите релизера, оцените раздачу и оставьте свои комментарий, если Вы скачали Люди в черном 1, 2, 3 через торрент бесплатно!
    Комментировать посты могут только пользователи прошедшие не сложную регистрацию
    Показать сообщения:    

    Люди в черном 1, 2, 3 через торрент
    Скачать бесплатно Люди в черном 1, 2, 3
    Люди в черном 1, 2, 3 скачать торрент
    Люди в черном 1, 2, 3 смотреть онлайн
    Cкачать фильм Люди в черном 1, 2, 3 бесплатно
    Люди в черном 1, 2, 3 скачать торрент в хорошем качестве
    Люди в черном 1, 2, 3 смотреть онлайн бесплатно в хорошем качестве


    Вы не можете начинать темы
    Вы не можете отвечать на сообщения
    Вы не можете редактировать свои сообщения
    Вы не можете удалять свои сообщения
    Вы не можете голосовать в опросах
    Вы не можете прикреплять файлы к сообщениям
    Вы можете скачивать файлы