Anonymous, добрый день, присоединяйтесь к нам в Telegram!, здесь всегда актуальный адрес сайта, оперативная поддержка и многое другое!

>

5.6

iTunes

7.4

iTunes

5.7

MVO

1

7.7

1 сезон

6.8

iTunes

7.3

1 сезон

13

6.7

1 сезон

8.3

RePack

30

ULTIMATE

pack

9.9

Лицензия

ВАЖНО

ИГРА 18+

pack

7.3

RePack

MK11

7.7

RePack

jed

7.8

RePack

fifa19

8.5

RePack

RDR2

RePack

NEED FOR SPEED™ PAYBACK

4 сезон

9 сезон

Бесстыжие 9 сезон

Все сериалы

все сериалы на PB.wtf

RePack

FAR CRY 5

Anonymous, добрый день, мы катастрофически не успеваем собрать деньги на оплату серверов, помогите нам пожалуйста 5,10,15р., для нас важна любая помощь . В качестве благодарности мы отключим Вам всю рекламу на сайте (укажите свой ник в строку Ваше имя)!

×
  
Magnet ссылка

Нечто: Дилогия / The Thing: Dilogy (Джон Карпентер / Маттис ван Хейниген мл.) [1982-2011, США, ужасы, BDRip 720p,Многоголосый, закадровый+Дубляж) 60fps pb.wtf

Нечто: Дилогия через торрент pb.wtf

Размер: 9.69 GB | Добавлен: 7 лет 2 мес. назад | Торрент скачан:266 раз
Смотреть онлайн Нечто: Дилогия | Скачать    Ребята, помогите собрать деньги на оплату серверов!!!

30-07-2014 13:17 Нечто: Дилогия Скачать торрент  

Перед скачиванием обязательно проверьте Сэмплы на своем оборудовании.
В 2,5 раза больше кадров!
В 2,5 раза плавнее! (59,94 fps)
Приятного просмотра.
Нечто / The Thing

Год выпуска: 1982
Страна: США
Жанр: ужасы, фантастика, триллер, детектив
Продолжительность: 01:48:42
Перевод: Многоголосый, закадровый)
Субтитры: Русские (полные), Английские (полные)
Режиссер: Джон Карпентер / John Carpenter
В ролях: Курт Рассел (R.J. MacReady), Кит Дэвид (Childs), Уилфорд Бримли (Dr. Blair), Т.К. Картер (Nauls), Дэвид Кленнон (Palmer), Ричард А. Дайсарт (Dr. Copper), Чарльз Хэллахан (Vance Norris), Питер Мэлоуни (George Bennings), Ричард Мейсер (Clark), Дональд Моффет (Garry), Джоэл Полис (Fuchs), Томас Дж. Уэйтс (Windows)
Описание:
Команде ученых американской исследовательской базы в Антарктике предстоит столкнуться с необъяснимым, чудовищным кошмаром. Отрезанные от всего света полярники вступают в неравную схватку с инопланетной тварью, пробудившейся после тысячелетней спячки во льдах, беспощадным существом, которое проснулось и... проголодалось.
Рейтинг
kinopoisk.ru: 7.807 (35 258)
imdb.com: 8.20 (197 091)
MPAA: R - Лицам до 17 лет обязательно присутствие взрослого
Качество: BDRip 720p
Формат: MKV
Видео кодек: AVC
Аудио кодек:AC3
Видео: ~4914 kb/s / 1280*544 / 59,940 кадров/сек
Аудио №1: русский / 48 kHz AC3 5.1, 384 kb/s, Многоголосый закадровый, Лицензия
Аудио №2: Русский: AC3 5.1, 384 kb/s, 48 kHz -Многоголосый закадровый, Студия Киномания
Аудио №3: Английский AC3 5.1, 640 kb/s 48 kHz

Код:

Общее
Уникальный идентификатор : 189186720603167958334029506241904544470 (0x8E54097ABBA2F91EBC82F20349988AD6)
Полное имя : A:\720p 60fps\Нечто 720p 60fps\Нечто (1982) 720p 60fps.mkv
Формат : Matroska
Версия формата : Version 4 / Version 2
Размер файла : 4,90 Гбайт
Продолжительность : 1 ч. 48 м.
Общий поток : 6450 Кбит/сек
Дата кодирования : UTC 2014-07-29 15:28:31
Программа кодирования : mkvmerge v6.9.1 ('Blue Panther') 64bit built on Apr 18 2014 18:23:38
Библиотека кодирования : libebml v1.3.0 + libmatroska v1.4.1

Видео
Идентификатор : 1
Формат : AVC
Формат/Информация : Advanced Video Codec
Профиль формата : High@L4.1
Параметр CABAC формата : Да
Параметр ReFrames формата : 9 кадров
Идентификатор кодека : V_MPEG4/ISO/AVC
Продолжительность : 1 ч. 48 м.
Битрейт : 4914 Кбит/сек
Ширина : 1280 пикселей
Высота : 544 пикселя
Соотношение сторон : 2,35:1
Режим частоты кадров : Постоянный
Частота кадров : 59,880 кадров/сек
Частота кадров в оригинале : 59,940 кадров/сек
Цветовое пространство : YUV
Субдискретизация насыщенности : 4:2:0
Битовая глубина : 8 бит
Тип развёртки : Прогрессивная
Бит/(Пиксели*Кадры) : 0.118
Размер потока : 3,73 Гбайт (76%)
Библиотека кодирования : x264 core 130 r2273 b3065e6
Настройки программы : cabac=1 / ref=9 / deblock=1:-1:-1 / analyse=0x3:0 / me=umh / subme=9 / psy=1 / psy_rd=1.00:0.10 / mixed_ref=1 / me_range=42 / chroma_me=0 / trellis=2 / 8x8dct=1 / cqm=0 / deadzone=21,11 / fast_pskip=0 / chroma_qp_offset=-3 / threads=12 / lookahead_threads=1 / sliced_threads=0 / nr=0 / decimate=0 / interlaced=0 / bluray_compat=0 / constrained_intra=0 / bframes=6 / b_pyramid=2 / b_adapt=2 / b_bias=0 / direct=1 / weightb=1 / open_gop=0 / weightp=2 / keyint=594 / keyint_min=59 / scenecut=40 / intra_refresh=0 / rc=crf / mbtree=0 / crf=13.0 / qcomp=0.60 / qpmin=0 / qpmax=69 / qpstep=4 / ip_ratio=1.40 / pb_ratio=1.30 / aq=0
Язык : English
Default : Да
Forced : Нет

Аудио #1
Идентификатор : 2
Формат : AC-3
Формат/Информация : Audio Coding 3
Расширение режима : CM (complete main)
Параметр Endianness формата : Big
Идентификатор кодека : A_AC3
Продолжительность : 1 ч. 48 м.
Вид битрейта : Постоянный
Битрейт : 384 Кбит/сек
Каналы : 6 каналов
Расположение каналов : Front: L C R, Side: L R, LFE
Частота : 48,0 КГц
Битовая глубина : 16 бит
Метод сжатия : С потерями
Размер потока : 299 Мбайт (6%)
Заголовок : MVO Лицензия
Язык : Russian
Default : Да
Forced : Нет

Аудио #2
Идентификатор : 3
Формат : AC-3
Формат/Информация : Audio Coding 3
Расширение режима : CM (complete main)
Параметр Endianness формата : Big
Идентификатор кодека : A_AC3
Продолжительность : 1 ч. 48 м.
Вид битрейта : Постоянный
Битрейт : 384 Кбит/сек
Каналы : 6 каналов
Расположение каналов : Front: L C R, Side: L R, LFE
Частота : 48,0 КГц
Битовая глубина : 16 бит
Метод сжатия : С потерями
Размер потока : 299 Мбайт (6%)
Заголовок : MVO Киномания
Язык : Russian
Default : Нет
Forced : Нет

Аудио #3
Идентификатор : 4
Формат : AC-3
Формат/Информация : Audio Coding 3
Расширение режима : CM (complete main)
Параметр Endianness формата : Big
Идентификатор кодека : A_AC3
Продолжительность : 1 ч. 48 м.
Вид битрейта : Постоянный
Битрейт : 640 Кбит/сек
Каналы : 6 каналов
Расположение каналов : Front: L C R, Side: L R, LFE
Частота : 48,0 КГц
Битовая глубина : 16 бит
Метод сжатия : С потерями
Размер потока : 498 Мбайт (10%)
Заголовок : Original
Язык : English
Default : Нет
Forced : Нет

Текст #1
Идентификатор : 5
Формат : UTF-8
Идентификатор кодека : S_TEXT/UTF8
Идентификатор кодека/Информация : UTF-8 Plain Text
Заголовок : Full
Язык : Russian
Default : Нет
Forced : Нет

Текст #2
Идентификатор : 6
Формат : UTF-8
Идентификатор кодека : S_TEXT/UTF8
Идентификатор кодека/Информация : UTF-8 Plain Text
Заголовок : Full
Язык : English
Default : Нет
Forced : Нет

Меню
00:00:00.000 : en:Chapter 1
00:02:07.794 : en:Chapter 2
00:04:34.899 : en:Chapter 3
00:07:02.880 : en:Chapter 4
00:10:24.248 : en:Chapter 5
00:14:22.987 : en:Chapter 6
00:15:49.281 : en:Chapter 7
00:22:14.249 : en:Chapter 8
00:24:50.447 : en:Chapter 9
00:27:01.620 : en:Chapter 10
00:30:13.812 : en:Chapter 11
00:33:03.481 : en:Chapter 12
00:34:15.720 : en:Chapter 13
00:36:03.411 : en:Chapter 14
00:37:22.657 : en:Chapter 15
00:40:05.444 : en:Chapter 16
00:41:44.627 : en:Chapter 17
00:45:32.312 : en:Chapter 18
00:46:31.747 : en:Chapter 19
00:50:18.223 : en:Chapter 20
00:54:44.197 : en:Chapter 21
00:57:36.411 : en:Chapter 22
00:59:08.795 : en:Chapter 23
01:02:47.388 : en:Chapter 24
01:05:28.382 : en:Chapter 25
01:09:51.979 : en:Chapter 26
01:14:23.667 : en:Chapter 27
01:17:43.700 : en:Chapter 28
01:18:44.803 : en:Chapter 29
01:25:18.571 : en:Chapter 30
01:26:41.237 : en:Chapter 31
01:29:19.187 : en:Chapter 32
01:31:14.969 : en:Chapter 33
01:34:25.701 : en:Chapter 34
01:37:19.333 : en:Chapter 35
01:39:14.448 : en:Chapter 36
01:42:09.206 : en:Chapter 37
01:48:42.182 : en:Chapter 38



Нечто / The Thing

Год выпуска: 2011
Страна: США, Канада
Жанр: ужасы, фантастика, триллер, детектив
Продолжительность: 01:43:01
Перевод: Дубляж
Субтитры: Русские (полные), Английские (полные)
Режиссер: Маттис ван Хейниген мл. / Matthijs van Heijningen Jr.
В ролях: Мэри Элизабет Уинстэд (Kate Lloyd), Джоэл Эдгертон (Sam Carter), Ульрих Томсен (Dr. Sander Halvorson), Эрик Кристиан Олсен (Adam Finch), Адевале Акинойе-Агбаже (Derek Jameson), Пол Браунштейн (Griggs), Тронд Эспен Сейм (Edvard Wolner), Ким Баббс (Juliette), Ёрген Лангхелле (Lars), Ян Гуннар Рёйсе (Olav), Стиг Хенрик Хофф (Peder), Кристофер Хивджу (Jonas)
Описание:
Научная экспедиция обнаруживает в Антарктике потерпевший крушение инопланетный космический корабль. Группа отчаянных учёных проникает в его недра и неожиданно для самих себя открывает ящик Пандоры. Среди непроходимых снегов и ледяных гор, выпущенное на свободу Нечто устраивает на исследовательской станции жуткую бойню.
Рейтинг
kinopoisk.ru: 6.466 (25 557)
imdb.com: 6.30 (76 652)
MPAA: R - Лицам до 17 лет обязательно присутствие взрослого
Качество: BDRip 720p
Формат: MKV
Видео кодек: AVC
Аудио кодек:AC3
Видео: ~5254 kb/s, 1280*536, 59,940 fps
Аудио №1: русский / AC3 5.1, 640 kb/s, Дубляж, BD CEE
Аудио №2: Английский AC3 5.1, 640 kb/s

Общее
Уникальный идентификатор : 219143847154436393429349540910975249262 (0xA4DD91DA3CE1C4458B3C021713596B6E)
Полное имя : A:\720p 60fps\Нечто 720p 60fps\Нечто (2011) 720p 60fps.mkv
Формат : Matroska
Версия формата : Version 4 / Version 2
Размер файла : 4,80 Гбайт
Продолжительность : 1 ч. 43 м.
Общий поток : 6667 Кбит/сек
Дата кодирования : UTC 2014-07-29 16:11:36
Программа кодирования : mkvmerge v6.9.1 ('Blue Panther') 64bit built on Apr 18 2014 18:23:38
Библиотека кодирования : libebml v1.3.0 + libmatroska v1.4.1

Видео
Идентификатор : 1
Формат : AVC
Формат/Информация : Advanced Video Codec
Профиль формата : High@L4.1
Параметр CABAC формата : Да
Параметр ReFrames формата : 9 кадров
Идентификатор кодека : V_MPEG4/ISO/AVC
Продолжительность : 1 ч. 43 м.
Битрейт : 5254 Кбит/сек
Ширина : 1280 пикселей
Высота : 536 пикселей
Соотношение сторон : 2,40:1
Режим частоты кадров : Постоянный
Частота кадров : 59,880 кадров/сек
Частота кадров в оригинале : 59,940 кадров/сек
Цветовое пространство : YUV
Субдискретизация насыщенности : 4:2:0
Битовая глубина : 8 бит
Тип развёртки : Прогрессивная
Бит/(Пиксели*Кадры) : 0.128
Размер потока : 3,78 Гбайт (79%)
Библиотека кодирования : x264 core 130 r2273 b3065e6
Настройки программы : cabac=1 / ref=9 / deblock=1:-1:-1 / analyse=0x3:0 / me=umh / subme=9 / psy=1 / psy_rd=1.00:0.10 / mixed_ref=1 / me_range=42 / chroma_me=0 / trellis=2 / 8x8dct=1 / cqm=0 / deadzone=21,11 / fast_pskip=0 / chroma_qp_offset=-3 / threads=12 / lookahead_threads=1 / sliced_threads=0 / nr=0 / decimate=0 / interlaced=0 / bluray_compat=0 / constrained_intra=0 / bframes=6 / b_pyramid=2 / b_adapt=2 / b_bias=0 / direct=1 / weightb=1 / open_gop=0 / weightp=2 / keyint=594 / keyint_min=59 / scenecut=40 / intra_refresh=0 / rc=crf / mbtree=0 / crf=13.0 / qcomp=0.60 / qpmin=0 / qpmax=69 / qpstep=4 / ip_ratio=1.40 / pb_ratio=1.30 / aq=0
Язык : English
Default : Да
Forced : Нет

Аудио #1
Идентификатор : 2
Формат : AC-3
Формат/Информация : Audio Coding 3
Расширение режима : CM (complete main)
Параметр Endianness формата : Big
Идентификатор кодека : A_AC3
Продолжительность : 1 ч. 43 м.
Вид битрейта : Постоянный
Битрейт : 640 Кбит/сек
Каналы : 6 каналов
Расположение каналов : Front: L C R, Side: L R, LFE
Частота : 48,0 КГц
Битовая глубина : 16 бит
Метод сжатия : С потерями
Размер потока : 472 Мбайт (10%)
Заголовок : Дубляж
Язык : Russian
Default : Да
Forced : Нет

Аудио #2
Идентификатор : 3
Формат : AC-3
Формат/Информация : Audio Coding 3
Расширение режима : CM (complete main)
Параметр Endianness формата : Big
Идентификатор кодека : A_AC3
Продолжительность : 1 ч. 43 м.
Вид битрейта : Постоянный
Битрейт : 640 Кбит/сек
Каналы : 6 каналов
Расположение каналов : Front: L C R, Side: L R, LFE
Частота : 48,0 КГц
Битовая глубина : 16 бит
Метод сжатия : С потерями
Размер потока : 472 Мбайт (10%)
Заголовок : Original
Язык : English
Default : Нет
Forced : Нет

Текст #1
Идентификатор : 4
Формат : UTF-8
Идентификатор кодека : S_TEXT/UTF8
Идентификатор кодека/Информация : UTF-8 Plain Text
Заголовок : Full
Язык : Russian
Default : Нет
Forced : Нет

Текст #2
Идентификатор : 5
Формат : UTF-8
Идентификатор кодека : S_TEXT/UTF8
Идентификатор кодека/Информация : UTF-8 Plain Text
Заголовок : Full
Язык : English
Default : Нет
Forced : Нет

Меню
00:00:00.000 : en:00:00:00.000
00:04:31.897 : en:00:04:31.897
00:10:51.901 : en:00:10:51.901
00:14:41.422 : en:00:14:41.422
00:17:05.775 : en:00:17:05.775
00:20:39.655 : en:00:20:39.655
00:25:09.550 : en:00:25:09.550
00:32:49.634 : en:00:32:49.634
00:38:06.117 : en:00:38:06.117
00:43:02.705 : en:00:43:02.705
00:51:15.739 : en:00:51:15.739
00:55:13.185 : en:00:55:13.185
01:00:04.351 : en:01:00:04.351
01:04:51.805 : en:01:04:51.805
01:09:58.236 : en:01:09:58.236
01:14:39.517 : en:01:14:39.517
01:20:58.520 : en:01:20:58.520
01:24:46.373 : en:01:24:46.373
01:30:30.675 : en:01:30:30.675
01:34:56.316 : en:01:34:56.316
Авторская группа в ВК
pb.wtf



Скачать Нечто: Дилогия через торрент http://i68.fastpic.ru/big/2014/0730/73/85e4841c4015057b8a9d42ef72a49173.png Скачать, смотреть онлайн Нечто: Дилогия бесплантно в хорошем качестве Описание: Команде ученых американской исследовательской базы в Антарктике предстоит столкнуться с необъяснимым, чудовищным кошмаром. ... 9.5 10 26
Info! Золотая раздача, скачанное не засчитывается.
Торрент: Зарегистрирован [2014-07-30 13:45] · скачан: 266 раз
Статус: √ проверено
Размер: 9.69 GB
Как cкачать? Как скачать Нечто: Дилогия через торрент | UTorrent



Последний раз редактировалось: Tiberiumsun69 (2018-02-07 03:20), всего редактировалось 2 раз(а)

28-11-2019 20:33  

Отключить всю рекламу на сайте

30-07-2014 18:09 Нечто: Дилогия Скачать торрент  

Нечто 1982 г. до сих пор цепляет))pb.wtf



18-08-2014 10:43 Нечто: Дилогия Скачать торрент  

akcent писал(а):

Нечто 1982 г. до сих пор цепляет))

но его надо смотреть вторым фильмом.pb.wtf



25-11-2014 12:13 Нечто: Дилогия Скачать торрент  

argud79 писал(а):

akcent писал(а):

Нечто 1982 г. до сих пор цепляет))

но его надо смотреть вторым фильмом.

и в игру ещё надо поиграть, что бы вся картина былаpb.wtf



25-11-2014 12:14 Нечто: Дилогия Скачать торрент  

SectorOne24 писал(а):

argud79 писал(а):

akcent писал(а):

Нечто 1982 г. до сих пор цепляет))

но его надо смотреть вторым фильмом.

и в игру ещё надо поиграть, что бы вся картина была

Полностью согласен, игра тоже суперpb.wtf



25-11-2014 15:45 Нечто: Дилогия Скачать торрент  

Спасибо за релиз. А в 1080p будет? (такие фильмы должны быть и в 1080p)pb.wtf



28-02-2015 19:46 Нечто: Дилогия Скачать торрент  

oguhakik писал(а):

Спасибо за релиз. А в 1080p будет? (такие фильмы должны быть и в 1080p)

Я так понимаю что 60 fps получше 1080p будет.pb.wtf



    Дорогой пользователь! Огромная просьба, поблагодарите релизера, оцените раздачу и оставьте свои комментарий, если Вы скачали Нечто: Дилогия через торрент бесплатно!
    Комментировать посты могут только пользователи прошедшие не сложную регистрацию
    Показать сообщения:    

    Нечто: Дилогия через торрент
    Скачать бесплатно Нечто: Дилогия
    Нечто: Дилогия скачать торрент
    Нечто: Дилогия смотреть онлайн
    Cкачать фильм Нечто: Дилогия бесплатно
    Нечто: Дилогия скачать торрент в хорошем качестве
    Нечто: Дилогия смотреть онлайн бесплатно в хорошем качестве


    Вы не можете начинать темы
    Вы не можете отвечать на сообщения
    Вы не можете редактировать свои сообщения
    Вы не можете удалять свои сообщения
    Вы не можете голосовать в опросах
    Вы не можете прикреплять файлы к сообщениям
    Вы можете скачивать файлы