1 сезон

1 сезон

iTunes

1

КиноПоиск HD

Кинопоиск HD

iTunes

13

1 сезон

RePack

30

Ultimate

ВАЖНО

ИГРА 18+

pack

RePack

MK11
pack

Легкие деньги

RePack

jed

RePack

fifa19

RePack

RDR2

RePack

NEED FOR SPEED™ PAYBACK

4 сезон

9 сезон

Бесстыжие 9 сезон

Все сериалы

все сериалы на PB.wtf

RePack

FAR CRY 5
  
Magnet ссылка

Пункт назначения 3 / Final Destination 3 (Джеймс Вонг) [2006 г., ужасы, триллер, HDRip-AVC, Дубляж, [Лицензия] pb.wtf

Скачать  

31-07-2014 05:18 Пункт назначения 3 Скачать торрент  

Пункт назначения 3 / Final Destination 3
Год выпуска: 2006
Жанр: ужасы, триллер
Продолжительность: 01:32:54
Перевод: Дубляж, [Лицензия]
Режиссер: Джеймс Вонг
Продюссер: Глен Морган, Крэйг Перри, Джеймс Вонг
Сценарий: Глен Морган, Джеймс Вонг, Джеффри Реддик
Бюджет: $25 000 000
Премьера в мире: 9 февраля 2006
IMDB 5.80 (81 994)

В ролях: Мэри Элизабет Уинстэд, Райан Мерриман, Крис Лемке, Алекс Джонсон, Сэм Истон, Джесси Мосс, Джина Холден, Тексас Бэттл, Челан Симмонс, Кристал Лоу, Жанна Никонова, Михаил Тихонов, Александр Морозов, Александр Гаврилин, Василий Зотов
Описание: Главная героиня фильма — старшеклассница Венди Кристенсен, у которой однажды возникло предчувствие, что она и ее друзья станут жертвами несчастного случая, который произойдет на «американских горках».Когда же самые страшные опасения Венди подтверждаются, то те, кто сумел все-таки обмануть смерть и выжить, оказываются вынужденными расплачиваться за то, что изменили свою судьбу...
Качество: HDRip-AVC
Формат: MKV
Видео кодек: AVC
Аудио кодек: AC3
Видео: 1 280х720, 3 206 Kbps, 23.976 fps,
Аудио#1: AC-3, 320 Kbps (Rus) 48.0 KHz [Дублированный]
Субтитры: русские, английские
Автор рипа: Diavol


Код:

---[Information] [28.07.2014 12:03:56] x264 [info]: frame I:1391  Avg QP:17.17  size: 89922  PSNR Mean Y:46.59 U:51.41 V:52.97 Avg:47.70 Global:47.34
---[Information] [28.07.2014 12:03:56] x264 [info]: frame P:29910 Avg QP:20.29  size: 30465  PSNR Mean Y:44.27 U:49.75 V:53.00 Avg:45.41 Global:44.84
---[Information] [28.07.2014 12:03:56] x264 [info]: frame B:102221 Avg QP:21.84  size: 11675  PSNR Mean Y:43.47 U:49.70 V:52.43 Avg:44.70 Global:44.18
---[Information] [28.07.2014 12:03:56] x264 [info]: consecutive B-frames:  3.4%  3.6%  8.1% 14.5% 10.7% 53.2%  4.0%  0.8%  1.6%

Код:

General
Complete name                    : D:\Final Destination3.2006.HDRip-AVC.(1280x720).By Diavol.mkv
Format                           : Matroska
File size                        : 2.29 GiB
Duration                         : 1h 32mn
Overall bit rate                 : 3 525 Kbps
Movie name                       : Пункт назначения 3.2006
Encoded date                     : UTC 2014-07-28 08:29:44
Writing application              : mkvmerge v6.8.0 ('Theme for Great Cities') 64bit built on Mar  2 2014 21:34:26
Writing library                  : libebml v1.3.0 + libmatroska v1.4.1

Video
ID                               : 1
Format                           : AVC
Format/Info                      : Advanced Video Codec
Format profile                   : High@L4.1
Format settings, CABAC           : Yes
Format settings, ReFrames        : 9 frames
Muxing mode                      : Container profile=Unknown@4.1
Codec ID                         : V_MPEG4/ISO/AVC
Duration                         : 1h 32mn
Bit rate                         : 3 206 Kbps
Width                            : 1 280 pixels
Height                           : 720 pixels
Display aspect ratio             : 16:9
Frame rate                       : 23.976 fps
Color space                      : YUV
Chroma subsampling               : 4:2:0
Bit depth                        : 8 bits
Scan type                        : Progressive
Bits/(Pixel*Frame)               : 0.145
Stream size                      : 2.03 GiB (89%)
Writing library                  : x264 core 142 r2431 ac76440
Encoding settings                : cabac=1 / ref=9 / deblock=1:-3:-3 / analyse=0x3:0x113 / me=umh / subme=9 / psy=1 / psy_rd=1.00:0.00 / mixed_ref=1 / me_range=32 / chroma_me=1 / trellis=2 / 8x8dct=1 / cqm=0 / deadzone=21,11 / fast_pskip=1 / chroma_qp_offset=-2 / threads=9 / lookahead_threads=1 / sliced_threads=0 / nr=0 / decimate=1 / interlaced=0 / bluray_compat=0 / constrained_intra=0 / bframes=8 / b_pyramid=2 / b_adapt=2 / b_bias=8 / direct=1 / weightb=1 / open_gop=0 / weightp=2 / keyint=240 / keyint_min=23 / scenecut=40 / intra_refresh=0 / rc_lookahead=40 / rc=2pass / mbtree=1 / bitrate=3206 / ratetol=1.0 / qcomp=0.70 / qpmin=0 / qpmax=69 / qpstep=4 / cplxblur=20.0 / qblur=0.5 / ip_ratio=1.40 / aq=1:1.00
Language                         : English

Audio
ID                               : 2
Format                           : AC-3
Format/Info                      : Audio Coding 3
Mode extension                   : CM (complete main)
Codec ID                         : A_AC3
Duration                         : 1h 32mn
Bit rate mode                    : Constant
Bit rate                         : 320 Kbps
Channel(s)                       : 6 channels
Channel positions                : Front: L C R, Side: L R, LFE
Sampling rate                    : 48.0 KHz
Bit depth                        : 16 bits
Stream size                      : 212 MiB (9%)

Text #1
ID                               : 3
Format                           : UTF-8
Codec ID                         : S_TEXT/UTF8
Codec ID/Info                    : UTF-8 Plain Text
Language                         : Russian

Text #2
ID                               : 4
Format                           : UTF-8
Codec ID                         : S_TEXT/UTF8
Codec ID/Info                    : UTF-8 Plain Text
Language                         : English


скриншот   скриншот   скриншот   скриншот   скриншот  
pb.wtf



Торрент не зареган: Не зарегистрирован ||
Добавлен: 2014-07-31 05:17
Скачано: 317 раз  [ Список скачавших ]
% Раздел Тема Автор DL S | L
Фильмы [HD 720p, 1080p] (Хороший звук DUB, MVO) [ 3.88 GB ] Пункт назначения 3 / Final Destination 3 [2006 BDRip 1080p HEVC ] Мичман37 Скачать
1 | 0
Сборники на DVD и Сиквелы [DVDrip, WEB-DLRip, HDrip, BDRip] [ 3.64 GB ] Пункт назначения 1 2 3 4 5 / Final Destination 1 2 3 4 5 [2000 2003 2006 2009 2011 г BDRip] DUB ACFIORENTINA Скачать
1 | 0
Сборники на DVD и Сиквелы [DVDrip, WEB-DLRip, HDrip, BDRip] [ 6.41 GB ] Пункт назначения 12345 / Final Destination 12345 [2000 DVDRip] mib-andy Скачать
1 | 0
Сборники на DVD и Сиквелы [DVDrip, WEB-DLRip, HDrip, BDRip] [ 4.35 GB ] Пункт назначения 123 / Final Destination 123 [2000 2002 2006 HDRip] aspace Скачать
1 | 0
Фильмы [HD 720p, 1080p] (Хороший звук DUB, MVO) [ 7.76 GB ] Пункт назначения 3 / Final Destination 3 [2006 BDRip 1080p + Оригинал] Бумер Скачать
1 | 0
Сборники на DVD и Сиквелы [DVDrip, WEB-DLRip, HDrip, BDRip] [ 8.76 GB ] Пункт назначения 1234 / The Final Destination [2000 2003 2006 2009 г HDRip-AVC] -=Cherry=- Скачать
1 | 0
Фильмы 2006-2008 [ 2.17 GB ] Пункт назначения 3 / Final Destination 3 [2006 HDRip-AVC] Kristian Larsson Скачать
1 | 0

28-11-2019 20:33  

Отключить всю рекламу на сайте

    Дорогой пользователь! Огромная просьба, поблагодарите релизера, оцените раздачу и оставьте свои комментарий, если Вы скачали Пункт назначения 3 через торрент бесплатно! Внесите свою лепту в развитие PiratBit!
    Комментировать посты могут только пользователи прошедшие не сложную регистрацию
    Показать сообщения:    

    Пункт назначения 3 через торрент
    Скачать бесплатно Пункт назначения 3
    Пункт назначения 3 скачать торрент
    Пункт назначения 3 смотреть онлайн
    Cкачать фильм Пункт назначения 3 бесплатно
    Пункт назначения 3 скачать торрент в хорошем качестве
    Пункт назначения 3 смотреть онлайн бесплатно в хорошем качестве


    Вы не можете начинать темы
    Вы не можете отвечать на сообщения
    Вы не можете редактировать свои сообщения
    Вы не можете удалять свои сообщения
    Вы не можете голосовать в опросах
    Вы не можете прикреплять файлы к сообщениям
    Вы можете скачивать файлы