1 сезон

1 сезон

iTunes

1

КиноПоиск HD

Кинопоиск HD

iTunes

13

1 сезон

RePack

30

Новинка

ВАЖНО

ИГРА 18+

pack

RePack

MK11
pack

Легкие деньги

RePack

jed

RePack

fifa19

RePack

RDR2

RePack

NEED FOR SPEED™ PAYBACK

4 сезон

9 сезон

Бесстыжие 9 сезон

Все сериалы

все сериалы на PB.wtf

RePack

FAR CRY 5
  
Magnet ссылка

Пункт назначения 4 / The Final Destination (Дэвид Р. Эллис) [2009 г., ужасы, триллер, HDRip-AVC, Дубляж, [Лицензия] pb.wtf

Скачать  

31-07-2014 05:46 Пункт назначения 4 Скачать торрент  

Пункт назначения 4 / The Final Destination
Год выпуска: 2009
Жанр: ужасы, триллер
Продолжительность: 01:22:34
Перевод: Дубляж, [Лицензия]
Режиссер: Дэвид Р. Эллис
Продюссер: Крэйг Перри, Уоррен Зайд, Ричард Бренер
Сценарий: Эрик Бресс, Джеффри Реддик
Бюджет: $40 000 000
Премьера в мире: 26 августа 2009
IMDB 5.10 (59 695)

В ролях: Бобби Кампо, Шантель Ван Сантен, Ник Зано, Хейли Уэбб, Майкелти Уильямсон, Криста Аллен, Эндрю Фисцелла, Джастин Уэлборн, Стефани Онор, Лара Грайс, Прохор Чеховской, Наталья Фищук, Александр Гаврилин, Татьяна Шитова, Александр Груздев
Описание: История на этот раз вращается вокруг Ника О`Бэннона, к молодому человеку приходит видение — на автогонках произойдет ужасная трагедия, жертвами которой станут его друзья и он сам. Как и прежде группе счастливчиков, благодаря Нику, удается выжить, но смерть вовсе не спешит вычеркивать их из своего списка.
Качество: HDRip-AVC
Формат: MKV
Видео кодек: AVC
Аудио кодек: AC3
Видео: 1 280х534, 3 206 Kbps, 23.976 fps,
Аудио#1: AC-3, 320 Kbps (Rus) 48.0 KHz [Дублированный]
Субтитры: русские, английские
Автор рипа: Diavol


Код:

---[Information] [30.07.2014 7:31:03] x264 [info]: frame I:1163  Avg QP:16.20  size: 94250  PSNR Mean Y:46.95 U:50.71 V:51.61 Avg:47.92 Global:47.45
---[Information] [30.07.2014 7:31:03] x264 [info]: frame P:28135 Avg QP:19.36  size: 28949  PSNR Mean Y:44.52 U:49.30 V:50.13 Avg:45.61 Global:44.95
---[Information] [30.07.2014 7:31:03] x264 [info]: frame B:88422 Avg QP:21.13  size: 11791  PSNR Mean Y:43.74 U:49.14 V:50.12 Avg:44.92 Global:44.26
---[Information] [30.07.2014 7:31:03] x264 [info]: consecutive B-frames:  3.3%  3.4% 11.8% 27.2% 13.2% 31.8%  5.6%  2.4%  1.4%

Код:

General
Unique ID                                : 207086775586403089462065827263977276811 (0x9BCB7653F96848CFB0799881FCFEC58B)
Complete name                            : D:\Final Destination4.2009.HDRip-AVC.(1280x534).By Diavol.mkv
Format                                   : Matroska
Format version                           : Version 4 / Version 2
File size                                : 2.02 GiB
Duration                                 : 1h 21mn
Overall bit rate                         : 3 526 Kbps
Movie name                               : Пункт назначения 4.2009
Encoded date                             : UTC 2014-07-30 05:15:57
Writing application                      : mkvmerge v6.8.0 ('Theme for Great Cities') 64bit built on Mar  2 2014 21:34:26
Writing library                          : libebml v1.3.0 + libmatroska v1.4.1

Video
ID                                       : 1
Format                                   : AVC
Format/Info                              : Advanced Video Codec
Format profile                           : High@L4.1
Format settings, CABAC                   : Yes
Format settings, ReFrames                : 12 frames
Codec ID                                 : V_MPEG4/ISO/AVC
Duration                                 : 1h 21mn
Bit rate                                 : 3 206 Kbps
Width                                    : 1 280 pixels
Height                                   : 534 pixels
Display aspect ratio                     : 2.40:1
Frame rate                               : 23.976 fps
Color space                              : YUV
Chroma subsampling                       : 4:2:0
Bit depth                                : 8 bits
Scan type                                : Progressive
Bits/(Pixel*Frame)                       : 0.196
Stream size                              : 1.79 GiB (89%)
Writing library                          : x264 core 142 r2431 ac76440
Encoding settings                        : cabac=1 / ref=12 / deblock=1:-3:-3 / analyse=0x3:0x113 / me=umh / subme=9 / psy=1 / psy_rd=1.00:0.00 / mixed_ref=1 / me_range=32 / chroma_me=1 / trellis=2 / 8x8dct=1 / cqm=0 / deadzone=21,11 / fast_pskip=1 / chroma_qp_offset=-2 / threads=9 / lookahead_threads=1 / sliced_threads=0 / nr=0 / decimate=1 / interlaced=0 / bluray_compat=0 / constrained_intra=0 / bframes=8 / b_pyramid=2 / b_adapt=2 / b_bias=8 / direct=1 / weightb=1 / open_gop=0 / weightp=2 / keyint=240 / keyint_min=23 / scenecut=40 / intra_refresh=0 / rc_lookahead=40 / rc=2pass / mbtree=1 / bitrate=3206 / ratetol=1.0 / qcomp=0.70 / qpmin=0 / qpmax=69 / qpstep=4 / cplxblur=20.0 / qblur=0.5 / ip_ratio=1.40 / aq=1:1.00
Language                                 : English
Default                                  : Yes
Forced                                   : No

Audio
ID                                       : 2
Format                                   : AC-3
Format/Info                              : Audio Coding 3
Mode extension                           : CM (complete main)
Format settings, Endianness              : Big
Codec ID                                 : A_AC3
Duration                                 : 1h 21mn
Bit rate mode                            : Constant
Bit rate                                 : 320 Kbps
Channel(s)                               : 6 channels
Channel positions                        : Front: L C R, Side: L R, LFE
Sampling rate                            : 48.0 KHz
Bit depth                                : 16 bits
Compression mode                         : Lossy
Stream size                              : 187 MiB (9%)
Default                                  : Yes
Forced                                   : No

Text #1
ID                                       : 3
Format                                   : UTF-8
Codec ID                                 : S_TEXT/UTF8
Codec ID/Info                            : UTF-8 Plain Text
Title                                    : Full
Language                                 : Russian
Default                                  : No
Forced                                   : No

Text #2
ID                                       : 4
Format                                   : UTF-8
Codec ID                                 : S_TEXT/UTF8
Codec ID/Info                            : UTF-8 Plain Text
Title                                    : Full
Language                                 : English
Default                                  : No
Forced                                   : No


скриншот   скриншот   скриншот   скриншот   скриншот  
pb.wtf



Торрент не зареган: Не зарегистрирован ||
Добавлен: 2014-07-31 05:21
Скачано: 358 раз  [ Список скачавших ]
% Раздел Тема Автор DL S | L
3D Фильмы [ 17.18 GB ] Пункт назначения 4 в 3Д / The Final Destination 4 3D [2009 BDRip 1080p] [OverUnder / Вертикальная ] DUB [лицензия] serega768 Скачать
1 | 0
Фильмы [HD 720p, 1080p] (Хороший звук DUB, MVO) [ 3.56 GB ] Пункт назначения 4 / The Final Destination [2009 BDRip 1080p HEVC ] Мичман37 Скачать
1 | 0
Фильмы 2009 [ 1.37 GB ] Пункт назначения 4 / Final Destination The [2009 DVDRip] лицензия DEVI Скачать
1 | 0
Сборники на DVD и Сиквелы [DVDrip, WEB-DLRip, HDrip, BDRip] [ 8.76 GB ] Пункт назначения 1234 / The Final Destination [2000 2003 2006 2009 г HDRip-AVC] -=Cherry=- Скачать
1 | 0
3D Фильмы [ 7.93 GB ] Пункт назначения 4 3Д / The Final Destination 3D [2009 BDrip 1080p] Anaglyph DUBois / Анаглиф Дюбуа ACFIORENTINA Скачать
1 | 0
3D Фильмы [ 15.35 GB ] Пункт назначения 4 3D / The Final Destination 3D [2009 BD Remux] DEVI Скачать
1 | 0
3D Фильмы [ 1.43 GB ] Пункт назначения 4 3D / The Final Destination 3D [2009 HDRip] L_E_X Скачать
1 | 0


Последний раз редактировалось: Diavol (2014-08-01 09:03), всего редактировалось 3 раз(а)

28-11-2019 20:33  

Отключить всю рекламу на сайте

31-07-2014 06:35 Пункт назначения 4 Скачать торрент  

Спасибище, не самый плохой фильмец!
:film:pb.wtf



31-07-2014 07:06 Пункт назначения 4 Скачать торрент  

Diavol, HD-AVC рипы более 1024*... не делают (1280*... уже получается 720р а 720р делают только с ремуксов и блюров)

Цитата:

Аудио#1: AC-3, 320 Kbps

звук лучше по стандартам делай 192 384 448 640 кбпс

Цитата:

Размер:2.02 GB

и размеры подгоняй под 1,45 2,18 2,9Гб (и помни что в одном гигабайте 1024 мегабайт)
а там по логу хорошо подогнал только Re фреймы и B фреймы можно было сделать 10 и 6 соответственноpb.wtf



31-07-2014 07:12 Пункт назначения 4 Скачать торрент  

и запили ещё пару картинок со светлым фоном справа
а то мне эта полоска не нравится
pb.wtf



31-07-2014 07:27 Пункт назначения 4 Скачать торрент  

скриншот   скриншот  pb.wtf



31-07-2014 07:32 Пункт назначения 4 Скачать торрент  

Diavol писал(а):

скриншот   скриншот  

значит момент такой попалсяpb.wtf



    Дорогой пользователь! Огромная просьба, поблагодарите релизера, оцените раздачу и оставьте свои комментарий, если Вы скачали Пункт назначения 4 через торрент бесплатно! Внесите свою лепту в развитие PiratBit!
    Комментировать посты могут только пользователи прошедшие не сложную регистрацию
    Показать сообщения:    

    Пункт назначения 4 через торрент
    Скачать бесплатно Пункт назначения 4
    Пункт назначения 4 скачать торрент
    Пункт назначения 4 смотреть онлайн
    Cкачать фильм Пункт назначения 4 бесплатно
    Пункт назначения 4 скачать торрент в хорошем качестве
    Пункт назначения 4 смотреть онлайн бесплатно в хорошем качестве


    Вы не можете начинать темы
    Вы не можете отвечать на сообщения
    Вы не можете редактировать свои сообщения
    Вы не можете удалять свои сообщения
    Вы не можете голосовать в опросах
    Вы не можете прикреплять файлы к сообщениям
    Вы можете скачивать файлы