2 сезон

iTunes

MVO

1

2 сезон

iTunes

iTunes

1 сезон

RePack

30

Новинка

ВАЖНО

ИГРА 18+

pack

RePack

MK11
pack

Легкие деньги

RePack

jed

RePack

fifa19

RePack

RDR2

RePack

NEED FOR SPEED™ PAYBACK

4 сезон

9 сезон

Бесстыжие 9 сезон

Все сериалы

все сериалы на PB.wtf

RePack

FAR CRY 5

Anonymous, доброе утро, мы не успеваем собрать деньги на оплату серверов за декабрь и январь, помогите нам пожалуйста в это трудное время. В качестве благодарности мы отключим Вам всю рекламу на сайте (укажите свой ник в строку Ваше имя)!

×
  
Magnet ссылка

Знамение / Knowing (Алекс Пройас / Alex Proyas) [2009, США, Великобритания, Австралия, фантастика, боевик, триллер, BDRip 720p, Дубляж, Лицензия] 60 fps pb.wtf

Знамение через торрент pb.wtf

Размер: 6.35 GB | Добавлен: 6 лет 5 мес. назад | Торрент скачан:160 раз
Скачать  

31-07-2014 13:41 Знамение Скачать торрент  

Знамение / Knowing

Год выпуска: 2009
Страна: США, Великобритания, Австралия
Жанр: фантастика, боевик, триллер, драма, детектив

Продолжительность: 02:01:31
Перевод: Дублированный, Многоголосый закадровый
Субтитры:Русские (Полные), Английские (Полные),
Режиссер: Алекс Пройас / Alex Proyas
В ролях: Николас Кейдж (John Koestler), Роуз Бирн (Diana), Чандлер Кентербери (Caleb Koestler), Лара Робинсон (Abby / Lucinda), Бен Мендельсон (Phil Beckman), Д.Г. Малоуни (The Stranger), Надя Таунсенд (Grace), Алан Хопгуд (Reverend Koestler), Эдриэнн Пикеринг (Allison), Джошуа Лонг (Younger Caleb), Даниэль Картер (Miss Taylor (1959)), Алетеа МакГрат (Miss Taylor (2009))
Описание:
После вскрытия «временной капсулы», в которую в 1959 группа школьников поместила рисунки со своим видением будущего, в руки к профессору Джону Кестлеру попадает загадочный лист, сверху до низу исписанный цифрами. В поисках расшифровки содержания листа, Кестлер устанавливает загадочную связь между цифрами и крупнейшими мировыми бедствиями, произошедшими на Земле за последние 50 . Если верить цифрам, трагедий не избежать и в будущем, только теперь Кестлер знает, когда их ожидать. Но есть ли возможность их предотвратить? И самое главное: что будет, когда цепочка цифр кончится?
Рейтинг
kinopoisk.ru: 6.934 (68 764)
imdb.com: 6.20 (159 213)
MPAA: PG-13 - Детям до 13 лет просмотр не желателен
Качество: BDRip 720p / 60 fps
Формат: MKV
Видео кодек: AVC
Аудио кодек:AC3
Видео: AVC, 1280x544, 5797 kbps, 59,940 fps
Аудио №1: русский / AC3 / 5.1 / 48 kHz / 448 kbps / Дубляж BD CEE
Аудио №2: русский / AC3 / 5.1 / 48 kHz / 448 kbps / Многоголосый закадровый, Студия Киномания
Аудио №3: английский / AC3 / 5.1 / 48 kHz / 640 kbps
Навигация по главам: есть

General
Unique ID : 235400735268132806997845818939616084107 (0xB1188851D01F335FA405DBA59851408B)
Complete name : A:\720p 60fps\Знамение 720p 60fps.mkv
Format : Matroska
Format version : Version 4 / Version 2
File size : 6.35 GiB
Duration : 2h 1mn
Overall bit rate : 7 482 Kbps
Encoded date : UTC 2014-07-29 15:55:57
Writing application : mkvmerge v6.9.1 ('Blue Panther') 64bit built on Apr 18 2014 18:23:38
Writing library : libebml v1.3.0 + libmatroska v1.4.1

Video
ID : 1
Format : AVC
Format/Info : Advanced Video Codec
Format profile : High@L4.1
Format settings, CABAC : Yes
Format settings, ReFrames : 9 frames
Codec ID : V_MPEG4/ISO/AVC
Duration : 2h 1mn
Bit rate : 5 797 Kbps
Width : 1 280 pixels
Height : 544 pixels
Display aspect ratio : 2.35:1
Frame rate : 59.940 fps
Color space : YUV
Chroma subsampling : 4:2:0
Bit depth : 8 bits
Scan type : Progressive
Bits/(Pixel*Frame) : 0.139
Stream size : 4.92 GiB (77%)
Writing library : x264 core 130 r2273 b3065e6
Encoding settings : cabac=1 / ref=9 / deblock=1:-1:-1 / analyse=0x3:0 / me=umh / subme=9 / psy=1 / psy_rd=1.00:0.10 / mixed_ref=1 / me_range=42 / chroma_me=0 / trellis=2 / 8x8dct=1 / cqm=0 / deadzone=21,11 / fast_pskip=0 / chroma_qp_offset=-3 / threads=12 / lookahead_threads=1 / sliced_threads=0 / nr=0 / decimate=0 / interlaced=0 / bluray_compat=0 / constrained_intra=0 / bframes=6 / b_pyramid=2 / b_adapt=2 / b_bias=0 / direct=1 / weightb=1 / open_gop=0 / weightp=2 / keyint=594 / keyint_min=59 / scenecut=40 / intra_refresh=0 / rc=crf / mbtree=0 / crf=13.0 / qcomp=0.60 / qpmin=0 / qpmax=69 / qpstep=4 / ip_ratio=1.40 / pb_ratio=1.30 / aq=0
Language : English
Default : Yes
Forced : No

Audio #1
ID : 2
Format : AC-3
Format/Info : Audio Coding 3
Mode extension : CM (complete main)
Codec ID : A_AC3
Duration : 2h 1mn
Bit rate mode : Constant
Bit rate : 448 Kbps
Channel(s) : 6 channels
Channel positions : Front: L C R, Side: L R, LFE
Sampling rate : 48.0 KHz
Bit depth : 16 bits
Compression mode : Lossy
Stream size : 389 MiB (6%)
Title : Дубляж
Language : Russian
Default : Yes
Forced : No

Audio #2
ID : 3
Format : AC-3
Format/Info : Audio Coding 3
Mode extension : CM (complete main)
Codec ID : A_AC3
Duration : 2h 1mn
Bit rate mode : Constant
Bit rate : 448 Kbps
Channel(s) : 6 channels
Channel positions : Front: L C R, Side: L R, LFE
Sampling rate : 48.0 KHz
Bit depth : 16 bits
Compression mode : Lossy
Stream size : 389 MiB (6%)
Title : MVO Киномания
Language : Russian
Default : No
Forced : No

Audio #3
ID : 6
Format : AC-3
Format/Info : Audio Coding 3
Mode extension : CM (complete main)
Codec ID : A_AC3
Duration : 2h 1mn
Bit rate mode : Constant
Bit rate : 640 Kbps
Channel(s) : 6 channels
Channel positions : Front: L C R, Side: L R, LFE
Sampling rate : 48.0 KHz
Bit depth : 16 bits
Compression mode : Lossy
Stream size : 556 MiB (9%)
Title : Original
Language : English
Default : No
Forced : No

Text #1
ID : 4
Format : UTF-8
Codec ID : S_TEXT/UTF8
Codec ID/Info : UTF-8 Plain Text
Title : Full
Language : Russian
Default : No
Forced : No

Text #2
ID : 5
Format : UTF-8
Codec ID : S_TEXT/UTF8
Codec ID/Info : UTF-8 Plain Text
Title : Full
Language : English
Default : No
Forced : No

Menu
00:00:00.000 : en:00:00:00.000
00:08:35.096 : en:00:08:35.096
00:15:20.210 : en:00:15:20.210
00:20:28.143 : en:00:20:28.143
00:29:06.827 : en:00:29:06.827
00:36:52.751 : en:00:36:52.751
00:43:17.010 : en:00:43:17.010
00:49:04.523 : en:00:49:04.523
00:56:09.740 : en:00:56:09.740
01:02:30.371 : en:01:02:30.371
01:08:11.545 : en:01:08:11.545
01:16:17.322 : en:01:16:17.322
01:22:58.097 : en:01:22:58.097
01:30:14.699 : en:01:30:14.699
01:39:33.509 : en:01:39:33.509
01:50:31.166 : en:01:50:31.166
02:01:28.447 : en:02:01:28.447
Авторская группа в ВК
pb.wtf



Скачать Знамение через торрент https://pic.kartinco.top/new/img/2014-07/31/hc15kaynm181nereo2dzf7fug.png Скачать фильм Знамение через торрент бесплантно в хорошем качестве Описание: После вскрытия «временной капсулы», в которую в 1959 группа школьников поместила рисунки со своим видением будущего, в руки к ... 10 10 11
Info! Золотая раздача, скачанное не засчитывается.
Торрент: Зарегистрирован [2014-07-31 13:41] · скачан: 160 раз
Статус: √ проверено
Размер: 6.35 GB
Как cкачать? Как скачать Знамение через торрент | UTorrent

% Раздел Тема Автор DL S | L
Фильмы (HD 720p, 1080p) (48-60 fps) [ 10.85 GB ] Знамение / Knowing [2009 Австралия BDRip 1080p - [] 60 fps Tiberiumsun69 Скачать
1 | 0


Последний раз редактировалось: Tiberiumsun69 (2018-02-07 08:00), всего редактировалось 4 раз(а)

28-11-2019 20:33  

Отключить всю рекламу на сайте

31-07-2014 13:42 Знамение Скачать торрент  

Думаю на первый раз сойдет.

Raven спасибо Большое за помощь при оформлении.pb.wtf



    Дорогой пользователь! Огромная просьба, поблагодарите релизера, оцените раздачу и оставьте свои комментарий, если Вы скачали Знамение через торрент бесплатно! Внесите свою лепту в развитие PiratBit!
    Комментировать посты могут только пользователи прошедшие не сложную регистрацию
    Показать сообщения:    

    Знамение через торрент
    Скачать бесплатно Знамение
    Знамение скачать торрент
    Знамение смотреть онлайн
    Cкачать фильм Знамение бесплатно
    Знамение скачать торрент в хорошем качестве
    Знамение смотреть онлайн бесплатно в хорошем качестве


    Вы не можете начинать темы
    Вы не можете отвечать на сообщения
    Вы не можете редактировать свои сообщения
    Вы не можете удалять свои сообщения
    Вы не можете голосовать в опросах
    Вы не можете прикреплять файлы к сообщениям
    Вы можете скачивать файлы