MEGA SALE -75% Borderlands 3 Super Deluxe всего за 550р. 180 руб. (супер цена). Внимание количество ограничено!!!

iTunes

1+1

iTunes

мы

iTunes

1

iTunes

Чернобыль

iTunes

Ральф против интернета

Лицензия

ПШазам

Лицензия

Игра престолов

Лицензия

30
pack

ВАЖНО

!!Акция!!

Alien_RageХит недели

RePack

Resident Evil 21

ИГРА 18+

pack

RePack

Metro:Exodus

!!Акция!!

Alien_Rage

RePack

fifa19

RePack

Assassins Creed: Odyssey

RePack

NEED FOR SPEED™ PAYBACK

3 сезон

9 сезон

Бесстыжие 9 сезон

Все сериалы

все сериалы на PB.wtf

RePack

FAR CRY 5
Ребята, катастрофически не хватает 1900р. для оплаты серверов за АВГУСТ (всвязи с блокировками трафик упал в 3 раза), 1-2р., выручайте.
  

Щепка / Sliver (Филлип Нойс / Phillip Noyce) [1993, США, триллер, мелодрама, BDRip720p-AVC, MVO] [НТВ+]+DVO+2*AVO pb.wtf

Щепка через торрент pb.wtf

Размер: 4.35 GB | Добавлен: 5 лет 2 мес. назад | Торрент скачан:72 раза
Скачать  

01-08-2014 03:15 Щепка Скачать торрент  

Щепка / Sliver
«You like to watch...don't you»


  • Год выпуска: 1993
  • Страна: США
  • Жанр: триллер, мелодрама
  • Продолжительность: 01:46:31
  • Перевод: Профессиональный многоголосый закадровый [НТВ+]
  • Субтитры: Русские, английские

  • Режиссер: Филлип Нойс / Phillip Noyce
  • В ролях:

    Шэрон Стоун (Carly Norris), Уильям Болдуин (Zeke Hawkins), Том Беренджер (Jack Landsford), Полли Уокер (Vida Warren), Коллин Кэмп (Judy Marks), Аманда Формен (Samantha Moore), Мартин Ландау (Alex Parsons), Си Си Эйч Паундер (Lt. Victoria Hendrix), Нина Фош (Evelyn McEvoy), Кин Кертис (Gus Hale), Николас Прайор (Peter Farrell), Энн Бетанкорт (Jackie Kinsella)

  • Описание:
    Сотрудница издательства Кей Норрис переезжает на новую квартиру в модном небоскребе, прозванном «щепка». Там она становится объектом соперничества двух мужчин - владельца дома и одного из жильцов, автора популярных детективов.
    Серия таинственных убийств, происходящих в доме, наводит ее на мысль, что вокруг нее самой сжимается опасное кольцо. Кей понимает, что неизвестный убийца - один из ее поклонников...
  • Рейтинг:



  • Качество: BDRip720p-AVC
  • Формат: :MKV
  • Видео кодек: AVC
  • Аудио кодек: AC3
  • Видео: 1280x608 (2.2:1), 4500 kbps, 23,976 fps, 0,241 bpp
  • Аудио №1: русский / 2.0 / 48 kHz / 256 kbps / 16 bit Профессиональный многоголосый (НТВ+)
  • Аудио №2: русский / 2.0 / 48 kHz / 192 kbps / 16 bit Профессиональный двухголосый (Премьер видео)
  • Аудио №3: русский / 5.1 / 48 kHz / 448 kbps / 16 bit Авторский одноголосый (А.Михалев)
  • Аудио №4: русский / 2.0 / 48 kHz / 192 kbps / 16 bit Авторский одноголосый (А.Пронин)
  • Аудио №5: английский / 2.0 / 48 kHz / 256 kbps / 16 bit
  • Релиз от: GEKADOL

    Код:

    Общее
    Уникальный идентификатор                 : 194795946745783220253047999075248904972 (0x928C55AE21D7EC0B9035D65C6C161B0C)
    Полное имя                               : D:\Фильмы\Shchepka.1993.x264.BDRip(720p)-MediaClub.mkv
    Формат                                   : Matroska
    Версия формата                           : Version 4 / Version 2
    Размер файла                             : 4,35 Гбайт
    Продолжительность                        : 1 ч. 46 м.
    Общий поток                              : 5843 Кбит/сек
    Название фильма                          : = MediaClub = rip by Painter
    Дата кодирования                         : UTC 2014-07-30 07:32:38
    Программа кодирования                    : mkvmerge v7.1.0 ('Good Love') 32bit built on Jul 27 2014 12:59:18
    Библиотека кодирования                   : libebml v1.3.0 + libmatroska v1.4.1
    DURATION                                 : 01:44:21.004000000
    NUMBER_OF_FRAMES                         : 1120
    NUMBER_OF_BYTES                          : 36673
    _STATISTICS_WRITING_APP                  : mkvmerge v7.1.0 ('Good Love') 32bit built on Jul 27 2014 12:59:18
    _STATISTICS_WRITING_DATE_UTC             : 2014-07-30 07:32:38
    _STATISTICS_TAGS                         : BPS DURATION NUMBER_OF_FRAMES NUMBER_OF_BYTES

    Видео
    Идентификатор                            : 1
    Формат                                   : AVC
    Формат/Информация                        : Advanced Video Codec
    Профиль формата                          : High@L4.1
    Параметр CABAC формата                   : Да
    Параметр ReFrames формата                : 9 кадров
    Идентификатор кодека                     : V_MPEG4/ISO/AVC
    Продолжительность                        : 1 ч. 46 м.
    Битрейт                                  : 4500 Кбит/сек
    Ширина                                   : 1280 пикселей
    Высота                                   : 608 пикселей
    Соотношение сторон                       : 2,105
    Режим частоты кадров                     : Постоянный
    Частота кадров                           : 23,976 кадра/сек
    Цветовое пространство                    : YUV
    Субдискретизация насыщенности            : 4:2:0
    Битовая глубина                          : 8 бит
    Тип развёртки                            : Прогрессивная
    Бит/(Пиксели*Кадры)                      : 0.241
    Размер потока                            : 3,26 Гбайт (75%)
    Библиотека кодирования                   : x264 core 142 r2409+42 04be48a tMod [8-bit@4:2:0 X86]
    Настройки программы                      : cabac=1 / ref=9 / deblock=1:-3:-2 / analyse=0x3:0x133 / me=umh / subme=11 / psy=1 / fade_compensate=0.00 / psy_rd=1.00:0.15 / mixed_ref=1 / me_range=32 / chroma_me=1 / trellis=2 / 8x8dct=1 / cqm=0 / deadzone=21,11 / fast_pskip=0 / chroma_qp_offset=-3 / threads=6 / lookahead_threads=1 / sliced_threads=0 / nr=0 / decimate=0 / interlaced=0 / bluray_compat=0 / constrained_intra=0 / fgo=0 / bframes=10 / b_pyramid=2 / b_adapt=2 / b_bias=0 / direct=3 / weightb=1 / open_gop=0 / weightp=2 / keyint=240 / keyint_min=23 / scenecut=40 / intra_refresh=0 / rc=2pass / mbtree=0 / bitrate=4500 / ratetol=1.0 / qcomp=0.60 / qpmin=0:0:0 / qpmax=69:69:69 / qpstep=4 / cplxblur=20.0 / qblur=0.5 / ip_ratio=1.40 / pb_ratio=1.30 / aq=2:1.00 / aq-sensitivity=10.00 / aq-factor=1.00:1.00:1.00 / aq2=0 / aq3=0
    Язык                                     : English
    Default                                  : Да
    Forced                                   : Нет
    DURATION                                 : 01:46:29.634000000
    NUMBER_OF_FRAMES                         : 153198
    NUMBER_OF_BYTES                          : 3591863602
    _STATISTICS_WRITING_APP                  : mkvmerge v7.1.0 ('Good Love') 32bit built on Jul 27 2014 12:59:18
    _STATISTICS_WRITING_DATE_UTC             : 2014-07-30 07:32:38
    _STATISTICS_TAGS                         : BPS DURATION NUMBER_OF_FRAMES NUMBER_OF_BYTES

    Аудио #1
    Идентификатор                            : 2
    Формат                                   : AC-3
    Формат/Информация                        : Audio Coding 3
    Расширение режима                        : CM (complete main)
    Параметр Endianness формата              : Big
    Идентификатор кодека                     : A_AC3
    Продолжительность                        : 1 ч. 46 м.
    Вид битрейта                             : Постоянный
    Битрейт                                  : 256 Кбит/сек
    Каналы                                   : 2 канала
    Расположение каналов                     : Front: L R
    Частота                                  : 48,0 КГц
    Битовая глубина                          : 16 бит
    Метод сжатия                             : С потерями
    Размер потока                            : 195 Мбайт (4%)
    Заголовок                                : Многоголосый (HTB+)
    Язык                                     : Russian
    Default                                  : Да
    Forced                                   : Да

    Аудио #2
    Идентификатор                            : 3
    Формат                                   : AC-3
    Формат/Информация                        : Audio Coding 3
    Расширение режима                        : CM (complete main)
    Параметр Endianness формата              : Big
    Идентификатор кодека                     : A_AC3
    Продолжительность                        : 1 ч. 46 м.
    Вид битрейта                             : Постоянный
    Битрейт                                  : 192 Кбит/сек
    Каналы                                   : 2 канала
    Расположение каналов                     : Front: L R
    Частота                                  : 48,0 КГц
    Битовая глубина                          : 16 бит
    Метод сжатия                             : С потерями
    Размер потока                            : 146 Мбайт (3%)
    Заголовок                                : Двухголосый (Премьер видео)
    Язык                                     : Russian
    Default                                  : Нет
    Forced                                   : Нет

    Аудио #3
    Идентификатор                            : 4
    Формат                                   : AC-3
    Формат/Информация                        : Audio Coding 3
    Расширение режима                        : CM (complete main)
    Параметр Endianness формата              : Big
    Идентификатор кодека                     : A_AC3
    Продолжительность                        : 1 ч. 46 м.
    Вид битрейта                             : Постоянный
    Битрейт                                  : 448 Кбит/сек
    Каналы                                   : 6 каналов
    Расположение каналов                     : Front: L C R, Side: L R, LFE
    Частота                                  : 48,0 КГц
    Битовая глубина                          : 16 бит
    Метод сжатия                             : С потерями
    Размер потока                            : 341 Мбайт (8%)
    Заголовок                                : Михалев
    Язык                                     : Russian
    Default                                  : Нет
    Forced                                   : Нет

    Аудио #4
    Идентификатор                            : 5
    Формат                                   : AC-3
    Формат/Информация                        : Audio Coding 3
    Расширение режима                        : CM (complete main)
    Параметр Endianness формата              : Big
    Идентификатор кодека                     : A_AC3
    Продолжительность                        : 1 ч. 46 м.
    Вид битрейта                             : Постоянный
    Битрейт                                  : 192 Кбит/сек
    Каналы                                   : 2 канала
    Расположение каналов                     : Front: L R
    Частота                                  : 48,0 КГц
    Битовая глубина                          : 16 бит
    Метод сжатия                             : С потерями
    Размер потока                            : 146 Мбайт (3%)
    Заголовок                                : Пронин
    Язык                                     : Russian
    Default                                  : Нет
    Forced                                   : Нет

    Аудио #5
    Идентификатор                            : 6
    Формат                                   : AC-3
    Формат/Информация                        : Audio Coding 3
    Расширение режима                        : CM (complete main)
    Параметр Endianness формата              : Big
    Идентификатор кодека                     : A_AC3
    Продолжительность                        : 1 ч. 46 м.
    Вид битрейта                             : Постоянный
    Битрейт                                  : 256 Кбит/сек
    Каналы                                   : 2 канала
    Расположение каналов                     : Front: L R
    Частота                                  : 48,0 КГц
    Битовая глубина                          : 16 бит
    Метод сжатия                             : С потерями
    Размер потока                            : 195 Мбайт (4%)
    Язык                                     : English
    Default                                  : Нет
    Forced                                   : Нет

    Текст #1
    Идентификатор                            : 7
    Формат                                   : UTF-8
    Идентификатор кодека                     : S_TEXT/UTF8
    Идентификатор кодека/Информация          : UTF-8 Plain Text
    Язык                                     : Russian
    Default                                  : Нет
    Forced                                   : Нет

    Текст #2
    Идентификатор                            : 8
    Формат                                   : UTF-8
    Идентификатор кодека                     : S_TEXT/UTF8
    Идентификатор кодека/Информация          : UTF-8 Plain Text
    Язык                                     : English
    Default                                  : Нет
    Forced                                   : Нет

    Меню
    00:00:00.000                             : :Chapter 01
    00:04:12.877                             : :Chapter 02
    00:09:54.802                             : :Chapter 03
    00:19:07.729                             : :Chapter 04
    00:30:37.544                             : :Chapter 05
    00:38:24.135                             : :Chapter 06
    00:50:17.472                             : :Chapter 07
    00:57:37.954                             : :Chapter 08
    01:08:27.728                             : :Chapter 09
    01:12:09.241                             : :Chapter 10
    01:14:17.286                             : :Chapter 11
    01:26:37.108                             : :Chapter 12
    01:32:50.565                             : :Chapter 13
    01:46:29.383                             : :Chapter 14


    Скриншоты:


    pb.wtf



  • Скачать Щепка через торрент http://i67.fastpic.ru/big/2014/0801/94/f5683f3b2cf51506419b833e0abf1594.jpg Скачать фильм Щепка через торрент бесплантно в хорошем качестве Описание: Сотрудница издательства Кей Норрис переезжает на новую квартиру в модном небоскребе, прозванном «щепка». Там она становится ... 5 10 1
    Info! Золотая раздача, скачанное не засчитывается.
    Торрент: Зарегистрирован [2014-08-01 03:15] · скачан: 72 раз
    Статус: √ проверено
    Размер: 4.35 GB
    Как cкачать? Как скачать Щепка через торрент | qTorrent


    >> Регистрируемся здесь <<






    Отзывы и комментарии о схеме читаем и пишем здесь: ---> Отзывы и комментарии о схеме

    Новые благодарочки в телеграм довольных пользователей:
    скриншот   скриншот   скриншот   скриншот   скриншот
      Дорогой пользователь! Огромная просьба, поблагодарите релизера, оцените раздачу и оставьте свои комментарий, если Вы скачали Щепка через торрент бесплатно! Внесите свою лепту в развитие PiratBit!
      Комментировать посты могут только пользователи прошедшие не сложную регистрацию
      Показать сообщения:    

      Щепка через торрент
      Скачать бесплатно Щепка
      Щепка скачать торрент
      Щепка смотреть онлайн
      Cкачать фильм Щепка бесплатно
      Щепка скачать торрент в хорошем качестве
      Щепка смотреть онлайн бесплатно в хорошем качестве


      Вы не можете начинать темы
      Вы не можете отвечать на сообщения
      Вы не можете редактировать свои сообщения
      Вы не можете удалять свои сообщения
      Вы не можете голосовать в опросах
      Вы не можете прикреплять файлы к сообщениям
      Вы можете скачивать файлы