1 сезон

1 сезон

iTunes

1

КиноПоиск HD

Кинопоиск HD

iTunes

13

1 сезон

RePack

30

Новинка

ВАЖНО

ИГРА 18+

pack

RePack

MK11
pack

Легкие деньги

RePack

jed

RePack

fifa19

RePack

RDR2

RePack

NEED FOR SPEED™ PAYBACK

4 сезон

9 сезон

Бесстыжие 9 сезон

Все сериалы

все сериалы на PB.wtf

RePack

FAR CRY 5
  
Magnet ссылка

Пункт назначения 5 / Final Destination 5 (Стивен Куэйл) [2011 г., ужасы, триллер, HDRip-AVC, Дубляж, [Лицензия] pb.wtf

Скачать  

01-08-2014 08:42 Пункт назначения 5 Скачать торрент  

Пункт назначения 5 / Final Destination 5
Год выпуска: 2011
Жанр: ужасы, триллер
Продолжительность: 95 мин. / 01:35
Перевод: Дубляж, [Лицензия]
Режиссер: Стивен Куэйл
Продюссер: Крэйг Перри, Уоррен Зайд, Ричард Бренер
Сценарий: Эрик Хайссерер, Джеффри Реддик
Бюджет: $40 000 000
Премьера в мире: 4 августа 2011
IMDB 5.90 (67 604)

В ролях: Николас Д’Агосто, Эмма Белл, Майлз Фишер, Эллен Ро, Жаклин МакИннес Вуд, П.Дж. Бирн, Арлен Эскарпета, Дэвид Кокнер, Кортни Б. Вэнс, Тони Тодд, Даниил Эльдаров, Евгений Вальц, Мария Иващенко, Ирина Киреева, Диомид Виноградов
Описание: У Сэма Лоутона происходит жуткое видение: подвесной мост, на котором он находится со своими друзьями, рушится, и многие люди, включая его самого, погибают. Сэм начинает паниковать и уговаривает своих друзей и ещё нескольких «счастливчиков» уйти с моста. И как раз вовремя: как и предвидел Сэм, мост рушится на их глазах и множество людей погибает. Однако Сэм и его девушка Молли понимают, что смерть дала им лишь отсрочку, так как выжившие начинают погибать один за другим. Он должен понять, как обманув смерть однажды, обмануть её ещё раз, прежде чем настанет его очередь.
Качество: HDRip-AVC
Формат: MKV
Видео кодек: AVC
Аудио кодек: AC3
Видео: 1 280х534, 3 206 Kbps, 23.976 fps,
Аудио#1: AC-3, 320 Kbps (Rus) 48.0 KHz [Дублированный]
Субтитры: русские, английские
Автор рипа: Diavol


Код:

---[Information] [31.07.2014 4:41:25] x264 [info]: frame I:1239  Avg QP:13.84  size:106684  PSNR Mean Y:48.70 U:51.52 V:51.60 Avg:49.45 Global:49.16
---[Information] [31.07.2014 4:41:25] x264 [info]: frame P:30532 Avg QP:16.78  size: 33322  PSNR Mean Y:45.93 U:50.11 V:50.02 Avg:46.90 Global:46.51
---[Information] [31.07.2014 4:41:25] x264 [info]: frame B:100358 Avg QP:18.50  size: 10550  PSNR Mean Y:45.37 U:50.19 V:50.17 Avg:46.44 Global:45.97
---[Information] [31.07.2014 4:41:25] x264 [info]: consecutive B-frames:  2.0%  4.6%  5.5% 38.4% 11.7% 27.6%  5.4%  3.1%  1.6%

Код:

General
Unique ID                                : 225666197859333968027166285317519723007 (0xA9C5BA91F0049D41BCB2B4921BAC49FF)
Complete name                            : D:\Final Destination5.2011.HDRip-AVC.(1280x534).By Diavol.mkv
Format                                   : Matroska
Format version                           : Version 4 / Version 2
File size                                : 2.26 GiB
Duration                                 : 1h 31mn
Overall bit rate                         : 3 528 Kbps
Movie name                               : Пункт назначения 5.2011
Encoded date                             : UTC 2014-07-31 02:53:55
Writing application                      : mkvmerge v6.8.0 ('Theme for Great Cities') 64bit built on Mar  2 2014 21:34:26
Writing library                          : libebml v1.3.0 + libmatroska v1.4.1

Video
ID                                       : 1
Format                                   : AVC
Format/Info                              : Advanced Video Codec
Format profile                           : High@L4.1
Format settings, CABAC                   : Yes
Format settings, ReFrames                : 12 frames
Codec ID                                 : V_MPEG4/ISO/AVC
Duration                                 : 1h 31mn
Bit rate                                 : 3 206 Kbps
Width                                    : 1 280 pixels
Height                                   : 534 pixels
Display aspect ratio                     : 2.40:1
Frame rate                               : 23.976 fps
Color space                              : YUV
Chroma subsampling                       : 4:2:0
Bit depth                                : 8 bits
Scan type                                : Progressive
Bits/(Pixel*Frame)                       : 0.196
Stream size                              : 2.01 GiB (89%)
Writing library                          : x264 core 142 r2431 ac76440
Encoding settings                        : cabac=1 / ref=12 / deblock=1:-3:-3 / analyse=0x3:0x113 / me=umh / subme=9 / psy=1 / psy_rd=1.00:0.00 / mixed_ref=1 / me_range=32 / chroma_me=1 / trellis=2 / 8x8dct=1 / cqm=0 / deadzone=21,11 / fast_pskip=1 / chroma_qp_offset=-2 / threads=9 / lookahead_threads=1 / sliced_threads=0 / nr=0 / decimate=1 / interlaced=0 / bluray_compat=0 / constrained_intra=0 / bframes=8 / b_pyramid=2 / b_adapt=2 / b_bias=8 / direct=1 / weightb=1 / open_gop=0 / weightp=2 / keyint=240 / keyint_min=23 / scenecut=40 / intra_refresh=0 / rc_lookahead=40 / rc=2pass / mbtree=1 / bitrate=3206 / ratetol=1.0 / qcomp=0.70 / qpmin=0 / qpmax=69 / qpstep=4 / cplxblur=20.0 / qblur=0.5 / ip_ratio=1.40 / aq=1:1.00
Language                                 : English
Default                                  : Yes
Forced                                   : No

Audio
ID                                       : 2
Format                                   : AC-3
Format/Info                              : Audio Coding 3
Mode extension                           : CM (complete main)
Format settings, Endianness              : Big
Codec ID                                 : A_AC3
Duration                                 : 1h 31mn
Bit rate mode                            : Constant
Bit rate                                 : 320 Kbps
Channel(s)                               : 6 channels
Channel positions                        : Front: L C R, Side: L R, LFE
Sampling rate                            : 48.0 KHz
Bit depth                                : 16 bits
Compression mode                         : Lossy
Stream size                              : 210 MiB (9%)
Default                                  : Yes
Forced                                   : No

Text #1
ID                                       : 3
Format                                   : UTF-8
Codec ID                                 : S_TEXT/UTF8
Codec ID/Info                            : UTF-8 Plain Text
Language                                 : Russian
Default                                  : No
Forced                                   : No

Text #2
ID                                       : 4
Format                                   : UTF-8
Codec ID                                 : S_TEXT/UTF8
Codec ID/Info                            : UTF-8 Plain Text
Language                                 : English
Default                                  : No
Forced                                   : No


скриншот   скриншот   скриншот   скриншот   скриншот  
pb.wtf



Торрент не зареган: Не зарегистрирован ||
Добавлен: 2014-08-01 08:24
Скачано: 569 раз  [ Список скачавших ]
% Раздел Тема Автор DL S | L
3D Фильмы [ 14.89 GB ] Пункт назначения 5 в 3Д / Final Destination 5 3D [2011 BDRip 1080p] OverUnder / Вертикальная стереопара serega768 Скачать
1 | 0
Фильмы [HD 720p, 1080p] (Хороший звук DUB, MVO) [ 3.78 GB ] Пункт назначения 5 / Final Destination 5 [2011 BDRip 1080p HEVC ] Мичман37 Скачать
1 | 0
Сборники на DVD и Сиквелы [DVDrip, WEB-DLRip, HDrip, BDRip] [ 3.64 GB ] Пункт назначения 1 2 3 4 5 / Final Destination 1 2 3 4 5 [2000 2003 2006 2009 2011 г BDRip] DUB ACFIORENTINA Скачать
1 | 0
Сборники на DVD и Сиквелы [DVDrip, WEB-DLRip, HDrip, BDRip] [ 6.41 GB ] Пункт назначения 12345 / Final Destination 12345 [2000 DVDRip] mib-andy Скачать
1 | 0
Фильмы [HD 720p, 1080p] (Хороший звук DUB, MVO) [ 7.76 GB ] Пункт назначения 5 / Final Destination 5 [2011 BDRip 1080p + Оригинал] Бумер Скачать
1 | 0
3D Фильмы [ 5.91 GB ] Пункт назначения 5 3D / Final Destination 5 3D [2011 BDRip ] Anamorph OverUnder slaventi-69 Скачать
1 | 0
Фильмы [HD 720p, 1080p] (Хороший звук DUB, MVO) [ 4.11 GB ] Пункт назначения 5 / Final Destination 5 [2011 BDRip ] m9sо Скачать
1 | 0

28-11-2019 20:33  

Отключить всю рекламу на сайте

01-08-2014 09:52 Пункт назначения 5 Скачать торрент  

Спасибо, хороший релиз!pb.wtf



    Дорогой пользователь! Огромная просьба, поблагодарите релизера, оцените раздачу и оставьте свои комментарий, если Вы скачали Пункт назначения 5 через торрент бесплатно! Внесите свою лепту в развитие PiratBit!
    Комментировать посты могут только пользователи прошедшие не сложную регистрацию
    Показать сообщения:    

    Пункт назначения 5 через торрент
    Скачать бесплатно Пункт назначения 5
    Пункт назначения 5 скачать торрент
    Пункт назначения 5 смотреть онлайн
    Cкачать фильм Пункт назначения 5 бесплатно
    Пункт назначения 5 скачать торрент в хорошем качестве
    Пункт назначения 5 смотреть онлайн бесплатно в хорошем качестве


    Вы не можете начинать темы
    Вы не можете отвечать на сообщения
    Вы не можете редактировать свои сообщения
    Вы не можете удалять свои сообщения
    Вы не можете голосовать в опросах
    Вы не можете прикреплять файлы к сообщениям
    Вы можете скачивать файлы