Ссылка на приватное зеркало нашего сайта всего за 1$. Внимание количество ограничено!!!

2 сезон

iTunes

1 сезон

1

iTunes

iTunes

iTunes

1 сезон

RePack

30

ИГРА 18+

pack

ВАЖНО

!!Акция!!

Alien_RageХит недели

RePack

MK11
pack

Забери бонус

RePack

jed

!!Акция!!

Alien_Rage

RePack

fifa19

RePack

Assassins Creed: Odyssey

RePack

NEED FOR SPEED™ PAYBACK

4 сезон

9 сезон

Бесстыжие 9 сезон

Все сериалы

все сериалы на PB.wtf

RePack

FAR CRY 5
  

Сид 2: Новое поколение / Seed 2: The New Breed (Марсель Вальц / Marcel Walz) [2014, Канада, США, ужасы, триллер, HDRip, Любительский (одноголосый) [den904] pb.wtf

Сид 2: Новое поколение через торрент pb.wtf

Размер: 1.37 GB | Добавлен: 6 лет 2 мес. назад | Торрент скачан:243 раза
Скачать  

01-08-2014 15:42 Сид 2: Новое поколение Скачать торрент  

Сид 2: Новое поколение / Seed 2: The New Breed
«4 Girls and a Family of Killers!»

Год выпуска: 2014
Страна: Канада, США
Жанр:ужасы, триллер
Продолжительность:01:18:22
Перевод:Любительский (одноголосый) [den904]
Режиссер:Марсель Вальц / Marcel Walz

  • В ролях:

    Натали Шиц (Christine), Ник Принсип (Seed), Кэролин Уильямс (The Mother), Криста Кэмпбелл (Olivia), Анника Штраус (Claire), Sarah Hayden (Barbara), Мануш (The Officer), Jared Demetri Luciano (Glenn), Джефф Дилан Грэхэм (Joe), Микаела Шефер (Victim), Райан Николсон (Victim)

  • Описание:
    Возвращаясь с веселого девичника в Лас-Вегасе, компания девушек беззаботно путешествует в автомобиле по пустыне Невада, когда на их пути появляется семейство психопатов во главе с выжившим маньяком Сидом...

  • Мировая премьера:1 февраля 2014


      Качество: HDRip
      Формат:AVI
      Видео кодек: XviD
      Аудио кодек:AC3
      Видео: 720x400 (16:9), 2035 kbps, 24 fps
      Аудио №1: 2.0/ 48 kHz/ 192 kbps/ Russian
      Аудио №2: 2.0/ 48 kHz/ 256 kbps/ / English


    Код:

    General
    Complete name                            : D:\Торенты\Seed.2.The.New.Breed.2014.L1.HDRip.1400MB.avi
    Format                                   : AVI
    Format/Info                              : Audio Video Interleave
    File size                                : 1.37 GiB
    Duration                                 : 1h 18mn
    Overall bit rate                         : 2 497 Kbps
    Writing application                      : VirtualDubMod 1.5.10.3 | www.virtualdub-fr.org || (build 2550/release)
    Writing library                          : VirtualDubMod build 2550/release

    Video
    ID                                       : 0
    Format                                   : MPEG-4 Visual
    Format profile                           : Advanced Simple@L5
    Format settings, BVOP                    : 1
    Format settings, QPel                    : No
    Format settings, GMC                     : No warppoints
    Format settings, Matrix                  : Custom
    Codec ID                                 : XVID
    Codec ID/Hint                            : XviD
    Duration                                 : 1h 18mn
    Bit rate                                 : 2 035 Kbps
    Width                                    : 720 pixels
    Height                                   : 400 pixels
    Display aspect ratio                     : 16:9
    Frame rate                               : 24.000 fps
    Color space                              : YUV
    Chroma subsampling                       : 4:2:0
    Bit depth                                : 8 bits
    Scan type                                : Progressive
    Compression mode                         : Lossy
    Bits/(Pixel*Frame)                       : 0.294
    Stream size                              : 1.11 GiB (81%)
    Writing library                          : XviD 73

    Audio #1
    ID                                       : 1
    Format                                   : AC-3
    Format/Info                              : Audio Coding 3
    Mode extension                           : CM (complete main)
    Codec ID                                 : 2000
    Duration                                 : 1h 18mn
    Bit rate mode                            : Constant
    Bit rate                                 : 192 Kbps
    Channel(s)                               : 2 channels
    Channel positions                        : Front: L R
    Sampling rate                            : 48.0 KHz
    Bit depth                                : 16 bits
    Compression mode                         : Lossy
    Stream size                              : 108 MiB (8%)
    Alignment                                : Split accross interleaves
    Interleave, duration                     : 42 ms (1.00 video frame)
    Interleave, preload duration             : 500 ms

    Audio #2
    ID                                       : 2
    Format                                   : AC-3
    Format/Info                              : Audio Coding 3
    Mode extension                           : CM (complete main)
    Codec ID                                 : 2000
    Duration                                 : 1h 18mn
    Bit rate mode                            : Constant
    Bit rate                                 : 256 Kbps
    Channel(s)                               : 2 channels
    Channel positions                        : Front: L R
    Sampling rate                            : 48.0 KHz
    Bit depth                                : 16 bits
    Compression mode                         : Lossy
    Stream size                              : 144 MiB (10%)
    Alignment                                : Split accross interleaves
    Interleave, duration                     : 42 ms (1.00 video frame)
    Interleave, preload duration             : 500 ms

    Скриншоты:

    Каталог Новинок (Фильмы-трейлеры, Игры, Сериалы, Мультфильмы)

    © Оформление by Raven
    pb.wtf



  • Скачать Сид 2: Новое поколение через торрент http://pic.kartinco.top/new/img/2014-08/01/fkb7v93huas6vmebqrfmvuzng.jpg Скачать фильм Сид 2: Новое поколение через торрент бесплантно в хорошем качестве Описание:Возвращаясь с веселого девичника в Лас-Вегасе, компания девушек беззаботно путешествует в автомобиле по пустыне Невада, когда на ... 10 10 7
    Торрент: Зарегистрирован [2014-08-01 15:42] · скачан: 243 раз
    Статус: T временная
    Размер: 1.37 GB
    Как cкачать? Как скачать Сид 2: Новое поколение через торрент | qTorrent

    % Раздел Тема Автор DL S | L
    T Фильмы [HD 720p, 1080p] (Хороший звук DUB, MVO) [ 3.39 GB ] Сид 2: Новое поколение / Seed 2: The New Breed [2014 BDRip 720p Любительский [den904] Ворон Скачать
    1 | 0
    T Фильмы 2014 (Звук TS, Cam, VO, DVO) [ 1.37 GB ] Сид 2: Новое поколение / Seed 2: The New Breed [2014 HDRip Любительский [Xixidok] GEKADOL Скачать
    1 | 0

    28-11-2019 20:33  

    Отключить всю рекламу на сайте

      Дорогой пользователь! Огромная просьба, поблагодарите релизера, оцените раздачу и оставьте свои комментарий, если Вы скачали Сид 2: Новое поколение через торрент бесплатно! Внесите свою лепту в развитие PiratBit!
      Комментировать посты могут только пользователи прошедшие не сложную регистрацию
      Показать сообщения:    

      Сид 2: Новое поколение через торрент
      Скачать бесплатно Сид 2: Новое поколение
      Сид 2: Новое поколение скачать торрент
      Сид 2: Новое поколение смотреть онлайн
      Cкачать фильм Сид 2: Новое поколение бесплатно
      Сид 2: Новое поколение скачать торрент в хорошем качестве
      Сид 2: Новое поколение смотреть онлайн бесплатно в хорошем качестве


      Вы не можете начинать темы
      Вы не можете отвечать на сообщения
      Вы не можете редактировать свои сообщения
      Вы не можете удалять свои сообщения
      Вы не можете голосовать в опросах
      Вы не можете прикреплять файлы к сообщениям
      Вы можете скачивать файлы