2 сезон

iTunes

1 сезон

1

iTunes

iTunes

iTunes

1 сезон

RePack

30

ИГРА 18+

pack

ВАЖНО

!!Акция!!

Alien_RageХит недели

RePack

MK11
pack

Забери бонус

RePack

jed

!!Акция!!

Alien_Rage

RePack

fifa19

RePack

Assassins Creed: Odyssey

RePack

NEED FOR SPEED™ PAYBACK

4 сезон

9 сезон

Бесстыжие 9 сезон

Все сериалы

все сериалы на PB.wtf

RePack

FAR CRY 5
  

Сид 2: Новое поколение / Seed 2: The New Breed (Марсель Вальц / Marcel Walz) [2014, Канада, США, ужасы, триллер, BDRip 720p, Любительский (одноголосый) [den904] pb.wtf

Сид 2: Новое поколение через торрент pb.wtf

Размер: 3.39 GB | Добавлен: 6 лет 2 мес. назад | Торрент скачан:97 раз
Скачать  

01-08-2014 15:54 Сид 2: Новое поколение Скачать торрент  


Сид 2: Новое поколение / Seed 2: The New Breed

«4 Girls and a Family of Killers!»

Год выпуска:2014
Страна:Канада, США
Жанр:ужасы, триллер
Продолжительность:01:18:22
Перевод:Любительский (одноголосый) [den904]
Субтитры: английские,
Режиссер:Марсель Вальц / Marcel Walz
В ролях:

Натали Шиц (Christine), Ник Принсип (Seed), Кэролин Уильямс (The Mother), Криста Кэмпбелл (Olivia), Анника Штраус (Claire), Sarah Hayden (Barbara), Мануш (The Officer), Jared Demetri Luciano (Glenn), Джефф Дилан Грэхэм (Joe), Микаела Шефер (Victim), Райан Николсон (Victim)
  • Описание:
    Возвращаясь с веселого девичника в Лас-Вегасе, компания девушек беззаботно путешествует в автомобиле по пустыне Невада, когда на их пути появляется семейство психопатов во главе с выжившим маньяком Сидом...


    Качество:BDRip 720p
    Формат:MKV
    Видео кодек: AVC
    Аудио кодек:AC3, DTS
    Видео: AVC, 1280x720 (16:9), 4481 kbps, 24 fps, 0,203 bpp
    Аудио №1: русский / AC3 / 2.0 / 48 kHz / 192 kbps / 16 bit ||
    Аудио №2: английский / DTS / 5.1 / 48 kHz / 1510 kbps / 24 bit

    Код:

    General
    Unique ID                                : 226365248288814215382210164553753914262 (0xAA4C5C6ACFA38AD89073CD3900796B96)
    Complete name                            : D:\Торенты\Seed.2.The.New.Breed.2014.L1.BDRip.720p.mkv
    Format                                   : Matroska
    Format version                           : Version 4 / Version 2
    File size                                : 3.39 GiB
    Duration                                 : 1h 18mn
    Overall bit rate                         : 6 184 Kbps
    Encoded date                             : UTC 2014-08-01 11:07:57
    Writing application                      : mkvmerge v6.1.0 ('Old Devil') built on Mar  4 2013 09:10:42
    Writing library                          : libebml v1.3.0 + libmatroska v1.4.0

    Video
    ID                                       : 1
    Format                                   : AVC
    Format/Info                              : Advanced Video Codec
    Format profile                           : High@L4.1
    Format settings, CABAC                   : Yes
    Format settings, ReFrames                : 5 frames
    Codec ID                                 : V_MPEG4/ISO/AVC
    Duration                                 : 1h 18mn
    Bit rate                                 : 4 481 Kbps
    Width                                    : 1 280 pixels
    Height                                   : 720 pixels
    Display aspect ratio                     : 16:9
    Frame rate                               : 24.000 fps
    Color space                              : YUV
    Chroma subsampling                       : 4:2:0
    Bit depth                                : 8 bits
    Scan type                                : Progressive
    Bits/(Pixel*Frame)                       : 0.203
    Stream size                              : 2.39 GiB (70%)
    Writing library                          : x264 core 142 r2431 ac76440
    Encoding settings                        : cabac=1 / ref=5 / deblock=1:-1:-1 / analyse=0x3:0x113 / me=umh / subme=7 / psy=1 / psy_rd=1.00:0.15 / mixed_ref=1 / me_range=16 / chroma_me=1 / trellis=1 / 8x8dct=1 / cqm=0 / deadzone=21,11 / fast_pskip=0 / chroma_qp_offset=-3 / threads=18 / lookahead_threads=3 / sliced_threads=0 / nr=0 / decimate=1 / interlaced=0 / bluray_compat=0 / constrained_intra=0 / bframes=3 / b_pyramid=2 / b_adapt=1 / b_bias=0 / direct=1 / weightb=1 / open_gop=0 / weightp=2 / keyint=250 / keyint_min=24 / scenecut=40 / intra_refresh=0 / rc_lookahead=40 / rc=2pass / mbtree=1 / bitrate=4481 / ratetol=1.0 / qcomp=0.60 / qpmin=0 / qpmax=69 / qpstep=4 / cplxblur=20.0 / qblur=0.5 / ip_ratio=1.40 / aq=1:1.00
    Language                                 : English
    Default                                  : Yes
    Forced                                   : No

    Audio #1
    ID                                       : 2
    Format                                   : AC-3
    Format/Info                              : Audio Coding 3
    Mode extension                           : CM (complete main)
    Codec ID                                 : A_AC3
    Duration                                 : 1h 18mn
    Bit rate mode                            : Constant
    Bit rate                                 : 192 Kbps
    Channel(s)                               : 2 channels
    Channel positions                        : Front: L R
    Sampling rate                            : 48.0 KHz
    Bit depth                                : 16 bits
    Compression mode                         : Lossy
    Stream size                              : 108 MiB (3%)
    Language                                 : Russian
    Default                                  : Yes
    Forced                                   : No

    Audio #2
    ID                                       : 3
    Format                                   : DTS
    Format/Info                              : Digital Theater Systems
    Codec ID                                 : A_DTS
    Duration                                 : 1h 18mn
    Bit rate mode                            : Constant
    Bit rate                                 : 1 510 Kbps
    Channel(s)                               : 6 channels
    Channel positions                        : Front: L C R, Side: L R, LFE
    Sampling rate                            : 48.0 KHz
    Bit depth                                : 24 bits
    Compression mode                         : Lossy
    Stream size                              : 846 MiB (24%)
    Language                                 : English
    Default                                  : No
    Forced                                   : No

    Text
    ID                                       : 4
    Format                                   : UTF-8
    Codec ID                                 : S_TEXT/UTF8
    Codec ID/Info                            : UTF-8 Plain Text
    Language                                 : English
    Default                                  : No
    Forced                                   : No


    Скриншоты:

    Каталог Новинок (Фильмы-трейлеры, Игры, Сериалы, Мультфильмы)
    © Оформление by Raven
    pb.wtf



  • Скачать Сид 2: Новое поколение через торрент http://pic.kartinco.top/new/img/2014-08/01/fkb7v93huas6vmebqrfmvuzng.jpg Скачать фильм Сид 2: Новое поколение через торрент бесплантно в хорошем качестве Описание:Возвращаясь с веселого девичника в Лас-Вегасе, компания девушек беззаботно путешествует в автомобиле по пустыне Невада, когда на ... 10 10 5
    Торрент: Зарегистрирован [2014-08-01 15:54] · скачан: 97 раз
    Статус: T временная
    Размер: 3.39 GB
    Как cкачать? Как скачать Сид 2: Новое поколение через торрент | qTorrent

    % Раздел Тема Автор DL S | L
    T Фильмы 2014 (Звук TS, Cam, VO, DVO) [ 1.37 GB ] Сид 2: Новое поколение / Seed 2: The New Breed [2014 HDRip Любительский [den904] Ворон Скачать
    1 | 0
    T Фильмы 2014 (Звук TS, Cam, VO, DVO) [ 1.37 GB ] Сид 2: Новое поколение / Seed 2: The New Breed [2014 HDRip Любительский [Xixidok] GEKADOL Скачать
    1 | 0

    28-11-2019 20:33  

    Отключить всю рекламу на сайте

    01-08-2014 17:18 Сид 2: Новое поколение Скачать торрент  

    Оп чето новое жаль перевод тухлыйpb.wtf



      Дорогой пользователь! Огромная просьба, поблагодарите релизера, оцените раздачу и оставьте свои комментарий, если Вы скачали Сид 2: Новое поколение через торрент бесплатно! Внесите свою лепту в развитие PiratBit!
      Комментировать посты могут только пользователи прошедшие не сложную регистрацию
      Показать сообщения:    

      Сид 2: Новое поколение через торрент
      Скачать бесплатно Сид 2: Новое поколение
      Сид 2: Новое поколение скачать торрент
      Сид 2: Новое поколение смотреть онлайн
      Cкачать фильм Сид 2: Новое поколение бесплатно
      Сид 2: Новое поколение скачать торрент в хорошем качестве
      Сид 2: Новое поколение смотреть онлайн бесплатно в хорошем качестве


      Вы не можете начинать темы
      Вы не можете отвечать на сообщения
      Вы не можете редактировать свои сообщения
      Вы не можете удалять свои сообщения
      Вы не можете голосовать в опросах
      Вы не можете прикреплять файлы к сообщениям
      Вы можете скачивать файлы