Ссылка на приватное зеркало нашего сайта всего за 1$. Внимание количество ограничено!!!

2 сезон

iTunes

1 сезон

1

iTunes

iTunes

iTunes

1 сезон

RePack

30

ИГРА 18+

pack

ВАЖНО

!!Акция!!

Alien_RageХит недели

RePack

MK11
pack

Забери бонус

RePack

jed

!!Акция!!

Alien_Rage

RePack

fifa19

RePack

Assassins Creed: Odyssey

RePack

NEED FOR SPEED™ PAYBACK

4 сезон

9 сезон

Бесстыжие 9 сезон

Все сериалы

все сериалы на PB.wtf

RePack

FAR CRY 5
  

Анатомия любви / Endless Love (Шана Фест / Shana Feste) [2014, драма, мелодрама, BDRip 1080p, Дублированный, Лицензия] от R.G. HD-Films pb.wtf

Анатомия любви через торрент pb.wtf

Размер: 13.37 GB | Добавлен: 6 лет 2 мес. назад | Торрент скачан:83 раза
Скачать  

01-08-2014 17:39 Анатомия любви Скачать торрент  

Анатомия любви / Endless Love
«Она никогда не будет прежней»



Год выпуска: 2014
Страна: США
Жанр: драма, мелодрама
Продолжительность: 01:44:38
Перевод: Дублированный [Лицензия]
Субтитры: Русские (Forced, Full), Английские (Full, SDH)



Режиссер:
  • Шана Фест / Shana Feste
В ролях:
  • Алекс Петтифер, Габриэлла Уайлд, Брюс Гринвуд, Джоэли Ричардсон, Роберт Патрик, Риз Уэйкфилд, Дайо Окенийи, Эмма Ригби, Анна Энгер, Фаббианн Терез, Майк Блэнд, Джейк Шульц

Описание: Он - далеко не ангел, высокий дерзкий парень, помешанный на тачках. Она - примерная ученица, белокурая красотка из богатой семьи. Их любовь под запретом, а потому вдвойне желанна. Страсть сжигает их дотла и бросает в бездну.



Качество: BDRip 1080p
Формат: MKV
Видео кодек: AVC
Аудио кодек: DTS
Видео: 1920x816 (2.35:1), 23,976 fps, 15658 kbps, 0,417 bpp
Аудио №1: русский, DTS, 48 kHz, 5.1 ch, 755 kbps
Аудио №2: английский, DTS, 48 kHz, 5.1 ch, 1510 kbps


Код:

General
Unique ID                                : 236445779781368578284545538162099635224 (0xB1E1CCFDFBFABF21BE36D679BB8E4418)
Complete name                            : E:\Анатомия любви (2014) 1080p.mkv
Format                                   : Matroska
Format version                           : Version 4 / Version 2
File size                                : 13.4 GiB
Duration                                 : 1h 44mn
Overall bit rate                         : 18.3 Mbps
Movie name                               : Анатомия любви
Encoded date                             : UTC 2014-07-30 17:49:26
Writing application                      : mkvmerge v6.9.1 ('Blue Panther') 64bit built on Apr 18 2014 18:23:38
Writing library                          : libebml v1.3.0 + libmatroska v1.4.1
Attachment                               : Yes

Video
ID                                       : 1
Format                                   : AVC
Format/Info                              : Advanced Video Codec
Format profile                           : High@L4.1
Format settings, CABAC                   : Yes
Format settings, ReFrames                : 5 frames
Codec ID                                 : V_MPEG4/ISO/AVC
Duration                                 : 1h 44mn
Bit rate                                 : 15.7 Mbps
Width                                    : 1 920 pixels
Height                                   : 816 pixels
Display aspect ratio                     : 2.35:1
Frame rate                               : 23.976 fps
Color space                              : YUV
Chroma subsampling                       : 4:2:0
Bit depth                                : 8 bits
Scan type                                : Progressive
Bits/(Pixel*Frame)                       : 0.417
Stream size                              : 11.4 GiB (86%)
Title                                    : LolHD
Writing library                          : x264 core 142 r2431kMod ac76440
Encoding settings                        : cabac=1 / ref=5 / deblock=1:-3:-3 / analyse=0x3:0x133 / me=umh / subme=11 / psy=1 / fade_compensate=0.00 / psy_rd=1.05:0.00 / mixed_ref=1 / me_range=32 / chroma_me=1 / trellis=2 / 8x8dct=1 / cqm=0 / deadzone=21,11 / fast_pskip=0 / chroma_qp_offset=-2 / threads=24 / lookahead_threads=6 / sliced_threads=0 / nr=0 / decimate=0 / interlaced=0 / bluray_compat=0 / constrained_intra=0 / fgo=0 / bframes=12 / b_pyramid=2 / b_adapt=2 / b_bias=0 / direct=3 / weightb=1 / open_gop=0 / weightp=2 / keyint=250 / keyint_min=23 / scenecut=40 / intra_refresh=0 / rc=crf / mbtree=0 / crf=18.0000 / qcomp=0.60 / qpmin=0 / qpmax=69 / qpstep=4 / ip_ratio=1.40 / pb_ratio=1.15 / aq=1:0.65
Language                                 : English
Default                                  : Yes
Forced                                   : No

Audio #1
ID                                       : 2
Format                                   : DTS
Format/Info                              : Digital Theater Systems
Codec ID                                 : A_DTS
Duration                                 : 1h 44mn
Bit rate mode                            : Constant
Bit rate                                 : 755 Kbps
Channel(s)                               : 6 channels
Channel positions                        : Front: L C R, Side: L R, LFE
Sampling rate                            : 48.0 KHz
Bit depth                                : 24 bits
Compression mode                         : Lossy
Stream size                              : 565 MiB (4%)
Title                                    : Дублированный, Blu-ray CEE
Language                                 : Russian
Default                                  : Yes
Forced                                   : No

Audio #2
ID                                       : 3
Format                                   : DTS
Format/Info                              : Digital Theater Systems
Codec ID                                 : A_DTS
Duration                                 : 1h 44mn
Bit rate mode                            : Constant
Bit rate                                 : 1 510 Kbps
Channel(s)                               : 6 channels
Channel positions                        : Front: L C R, Side: L R, LFE
Sampling rate                            : 48.0 KHz
Bit depth                                : 24 bits
Compression mode                         : Lossy
Stream size                              : 1.10 GiB (8%)
Title                                    : Оригинал
Language                                 : English
Default                                  : No
Forced                                   : No

Text #1
ID                                       : 4
Format                                   : UTF-8
Codec ID                                 : S_TEXT/UTF8
Codec ID/Info                            : UTF-8 Plain Text
Title                                    : Forced
Language                                 : Russian
Default                                  : Yes
Forced                                   : No

Text #2
ID                                       : 5
Format                                   : UTF-8
Codec ID                                 : S_TEXT/UTF8
Codec ID/Info                            : UTF-8 Plain Text
Title                                    : Full
Language                                 : Russian
Default                                  : No
Forced                                   : No

Text #3
ID                                       : 6
Format                                   : UTF-8
Codec ID                                 : S_TEXT/UTF8
Codec ID/Info                            : UTF-8 Plain Text
Title                                    : Full
Language                                 : English
Default                                  : No
Forced                                   : No

Text #4
ID                                       : 7
Format                                   : UTF-8
Codec ID                                 : S_TEXT/UTF8
Codec ID/Info                            : UTF-8 Plain Text
Title                                    : SDH
Language                                 : English
Default                                  : No
Forced                                   : No

Menu
00:00:00.000                             : en:Chapter 01
00:05:46.221                             : en:Chapter 02
00:11:45.163                             : en:Chapter 03
00:15:51.533                             : en:Chapter 04
00:19:43.723                             : en:Chapter 05
00:25:26.817                             : en:Chapter 06
00:29:42.990                             : en:Chapter 07
00:35:30.670                             : en:Chapter 08
00:39:56.643                             : en:Chapter 09
00:45:14.210                             : en:Chapter 10
00:49:02.021                             : en:Chapter 11
00:54:55.918                             : en:Chapter 12
00:59:51.588                             : en:Chapter 13
01:04:43.213                             : en:Chapter 14
01:10:01.948                             : en:Chapter 15
01:16:55.985                             : en:Chapter 16
01:23:17.033                             : en:Chapter 17
01:29:33.993                             : en:Chapter 18
01:35:54.082                             : en:Chapter 19
01:39:26.752                             : en:Chapter 20

Бюджет фильма: $20 000 000
Премьера (мир): 12 февраля 2014
Премьера (РФ): 6 марта 2014,
«UPI»

Релиз на Blu-Ray: 5 июня 2014,
«Двадцатый Век Фокс СНГ»,
...

Релиз на DVD: 5 июня 2014,
«Двадцатый Век Фокс СНГ»,
...






pb.wtf



Скачать Анатомия любви через торрент http://pic.kartinco.top/new/img/2014-08/09/0bhxs7jdudm5m0y8g6ha6voas.png Скачать фильм Анатомия любви через торрент бесплантно в хорошем качестве Описание: Он - далеко не ангел, высокий дерзкий парень, помешанный на тачках. Она - примерная ученица, белокурая красотка из богатой семьи. ... 7.8 10 4
Info! Золотая раздача, скачанное не засчитывается.
Торрент: Зарегистрирован [2014-08-01 17:39] · скачан: 83 раз
Статус: √ проверено
Размер: 13.37 GB
Как cкачать? Как скачать Анатомия любви через торрент | qTorrent



Последний раз редактировалось: Seedtank (2014-08-09 16:41), всего редактировалось 3 раз(а)

28-11-2019 20:33  

Отключить всю рекламу на сайте

01-08-2014 17:41 Анатомия любви Скачать торрент  

Релиз подготовлен специально для piratbit.cc
Вшита обложка.
pb.wtf



    Дорогой пользователь! Огромная просьба, поблагодарите релизера, оцените раздачу и оставьте свои комментарий, если Вы скачали Анатомия любви через торрент бесплатно! Внесите свою лепту в развитие PiratBit!
    Комментировать посты могут только пользователи прошедшие не сложную регистрацию
    Показать сообщения:    

    Анатомия любви через торрент
    Скачать бесплатно Анатомия любви
    Анатомия любви скачать торрент
    Анатомия любви смотреть онлайн
    Cкачать фильм Анатомия любви бесплатно
    Анатомия любви скачать торрент в хорошем качестве
    Анатомия любви смотреть онлайн бесплатно в хорошем качестве


    Вы не можете начинать темы
    Вы не можете отвечать на сообщения
    Вы не можете редактировать свои сообщения
    Вы не можете удалять свои сообщения
    Вы не можете голосовать в опросах
    Вы не можете прикреплять файлы к сообщениям
    Вы можете скачивать файлы