Ссылка на приватное зеркало нашего сайта всего за 1$. Внимание количество ограничено!!!

2 сезон

iTunes

1 сезон

1

iTunes

iTunes

iTunes

1 сезон

RePack

30

ИГРА 18+

pack

ВАЖНО

!!Акция!!

Alien_RageХит недели

RePack

MK11
pack

Забери бонус

RePack

jed

!!Акция!!

Alien_Rage

RePack

fifa19

RePack

Assassins Creed: Odyssey

RePack

NEED FOR SPEED™ PAYBACK

4 сезон

9 сезон

Бесстыжие 9 сезон

Все сериалы

все сериалы на PB.wtf

RePack

FAR CRY 5
  

Волк с Уолл-стрит / The Wolf of Wall Street (Мартин Скорсезе / Martin Scorsese) [2013, драма, комедия, криминал, BDRip 1080p, Дублированный] от R.G. HD-Films pb.wtf

Волк с Уолл-стрит через торрент pb.wtf

Раздают: 1 [ 0 KB/s ]
Размер: 19.86 GB | Добавлен: 6 лет 2 мес. назад | Торрент скачан:373 раза
Скачать  

01-08-2014 17:57 Волк с Уолл-стрит Скачать торрент  

Волк с Уолл-стрит / The Wolf of Wall Street



Год выпуска: 2013
Страна: США
Жанр: драма, комедия, криминал, биография
Продолжительность: 02:59:52
Перевод: Дублированный
Субтитры: Русские (Full), Английские (Full)



Режиссер:
  • Мартин Скорсезе / Martin Scorsese
В ролях:
  • Леонардо ДиКаприо, Джона Хилл, Марго Робби, Кайл Чандлер, Роб Райнер, П.Дж. Бирн, Джон Бернтал, Кристин Милиоти, Жан Дюжарден, Мэттью МакКонахи, Кеннет Чои, Джон Фавро

Описание: 1987 год. Джордан Белфорт становится брокером в успешном инвестиционном банке. Вскоре банк закрывается после внезапного обвала индекса Доу-Джонса. По совету жены Терезы Джордан устраивается в небольшое заведение, занимающееся мелкими акциями. Его настойчивый стиль общения с клиентами и врождённая харизма быстро даёт свои плоды. Он знакомится с соседом по дому Донни, торговцем, который сразу находит общий язык с Джорданом и решает открыть с ним собственную фирму. В качестве сотрудников они нанимают нескольких друзей Белфорта, его отца Макса и называют компанию «Стрэттон Оукмонт». В свободное от работы время Джордан прожигает жизнь: лавирует от одной вечеринки к другой, вступает в сексуальные отношения с проститутками, употребляет множество наркотических препаратов, в том числе кокаин и кваалюд. Однажды наступает момент, когда быстрым обогащением Белфорта начинает интересоваться агент ФБР...



Качество: BDRip 1080p
Формат: MKV
Видео кодек: AVC
Аудио кодек: AC3 / DTS
Видео: 1920x800 (2.40:1), 23,976 fps, 10830 kbps, 0,294 bpp
Аудио №1: русский, AC3, 48 kHz, 5.1 ch, 448 kbps (Дублированный)
Аудио №2: русский, DTS, 48 kHz, 5.1 ch, 1510 kbps (Ю.Немахов)
Аудио №3: русский, DTS, 48 kHz, 5.1 ch, 1510 kbps (С.Визгунов)
Аудио №4: английский, DTS, 48 kHz, 5.1 ch, 1510 kbps


Код:

General
Unique ID                                : 239360589993469470457483730695741506582 (0xB4132C3B24CC2EE0B549840AE6E40416)
Complete name                            : E:\Волк с Уолл-стрит (2013) 1080p.mkv
Format                                   : Matroska
Format version                           : Version 4 / Version 2
File size                                : 19.9 GiB
Duration                                 : 2h 59mn
Overall bit rate                         : 15.8 Mbps
Movie name                               : Волк с Уолл-стрит
Encoded date                             : UTC 2014-07-20 12:52:30
Writing application                      : mkvmerge v6.9.1 ('Blue Panther') 64bit built on Apr 18 2014 18:23:38
Writing library                          : libebml v1.3.0 + libmatroska v1.4.1
Attachment                               : Yes

Video
ID                                       : 1
Format                                   : AVC
Format/Info                              : Advanced Video Codec
Format profile                           : High@L4.1
Format settings, CABAC                   : Yes
Format settings, ReFrames                : 5 frames
Codec ID                                 : V_MPEG4/ISO/AVC
Duration                                 : 2h 59mn
Bit rate                                 : 10.8 Mbps
Width                                    : 1 920 pixels
Height                                   : 800 pixels
Display aspect ratio                     : 2.40:1
Frame rate                               : 23.976 fps
Color space                              : YUV
Chroma subsampling                       : 4:2:0
Bit depth                                : 8 bits
Scan type                                : Progressive
Bits/(Pixel*Frame)                       : 0.294
Stream size                              : 13.2 GiB (67%)
Title                                    : CHD
Writing library                          : x264 core 138 r2356 a1d3d17
Encoding settings                        : cabac=1 / ref=5 / deblock=1:-3:-3 / analyse=0x3:0x113 / me=umh / subme=10 / psy=1 / psy_rd=1.00:0.05 / mixed_ref=1 / me_range=32 / chroma_me=1 / trellis=2 / 8x8dct=1 / cqm=0 / deadzone=21,11 / fast_pskip=0 / chroma_qp_offset=-2 / threads=18 / lookahead_threads=1 / sliced_threads=0 / nr=0 / decimate=1 / interlaced=0 / bluray_compat=0 / constrained_intra=0 / bframes=6 / b_pyramid=2 / b_adapt=2 / b_bias=0 / direct=3 / weightb=1 / open_gop=0 / weightp=2 / keyint=250 / keyint_min=23 / scenecut=40 / intra_refresh=0 / rc=2pass / mbtree=0 / bitrate=10830 / ratetol=1.0 / qcomp=0.70 / qpmin=0 / qpmax=69 / qpstep=4 / cplxblur=20.0 / qblur=0.5 / ip_ratio=1.40 / pb_ratio=1.30 / aq=2:1.00
Language                                 : English
Default                                  : Yes
Forced                                   : No

Audio #1
ID                                       : 2
Format                                   : AC-3
Format/Info                              : Audio Coding 3
Mode extension                           : CM (complete main)
Codec ID                                 : A_AC3
Duration                                 : 2h 59mn
Bit rate mode                            : Constant
Bit rate                                 : 448 Kbps
Channel(s)                               : 6 channels
Channel positions                        : Front: L C R, Side: L R, LFE
Sampling rate                            : 48.0 KHz
Bit depth                                : 16 bits
Compression mode                         : Lossy
Stream size                              : 576 MiB (3%)
Title                                    : Дублированный
Language                                 : Russian
Default                                  : Yes
Forced                                   : No

Audio #2
ID                                       : 3
Format                                   : DTS
Format/Info                              : Digital Theater Systems
Codec ID                                 : A_DTS
Duration                                 : 2h 59mn
Bit rate mode                            : Constant
Bit rate                                 : 1 510 Kbps
Channel(s)                               : 6 channels
Channel positions                        : Front: L C R, Side: L R, LFE
Sampling rate                            : 48.0 KHz
Bit depth                                : 24 bits
Compression mode                         : Lossy
Stream size                              : 1.90 GiB (10%)
Title                                    : Авторский, Ю.Немахов
Language                                 : Russian
Default                                  : No
Forced                                   : No

Audio #3
ID                                       : 4
Format                                   : DTS
Format/Info                              : Digital Theater Systems
Codec ID                                 : A_DTS
Duration                                 : 2h 59mn
Bit rate mode                            : Constant
Bit rate                                 : 1 510 Kbps
Channel(s)                               : 6 channels
Channel positions                        : Front: L C R, Side: L R, LFE
Sampling rate                            : 48.0 KHz
Bit depth                                : 24 bits
Compression mode                         : Lossy
Stream size                              : 1.90 GiB (10%)
Title                                    : Авторский, С.Визгунов
Language                                 : Russian
Default                                  : No
Forced                                   : No

Audio #4
ID                                       : 5
Format                                   : DTS
Format/Info                              : Digital Theater Systems
Codec ID                                 : A_DTS
Duration                                 : 2h 59mn
Bit rate mode                            : Constant
Bit rate                                 : 1 510 Kbps
Channel(s)                               : 6 channels
Channel positions                        : Front: L C R, Side: L R, LFE
Sampling rate                            : 48.0 KHz
Bit depth                                : 24 bits
Compression mode                         : Lossy
Stream size                              : 1.90 GiB (10%)
Title                                    : Оригинал
Language                                 : English
Default                                  : No
Forced                                   : No

Text #1
ID                                       : 6
Format                                   : UTF-8
Codec ID                                 : S_TEXT/UTF8
Codec ID/Info                            : UTF-8 Plain Text
Title                                    : Full
Language                                 : Russian
Default                                  : No
Forced                                   : No

Text #2
ID                                       : 7
Format                                   : UTF-8
Codec ID                                 : S_TEXT/UTF8
Codec ID/Info                            : UTF-8 Plain Text
Title                                    : Full
Language                                 : English
Default                                  : No
Forced                                   : No

Menu
00:00:00.000                             : en:00:00:00.000
00:07:55.934                             : en:00:07:55.934
00:14:17.857                             : en:00:14:17.857
00:21:31.415                             : en:00:21:31.415
00:32:08.093                             : en:00:32:08.093
00:40:14.495                             : en:00:40:14.495
00:48:33.577                             : en:00:48:33.577
00:55:21.777                             : en:00:55:21.777
01:01:56.046                             : en:01:01:56.046
01:07:00.475                             : en:01:07:00.475
01:11:28.910                             : en:01:11:28.910
01:19:49.868                             : en:01:19:49.868
01:29:06.883                             : en:01:29:06.883
01:37:47.403                             : en:01:37:47.403
01:45:11.931                             : en:01:45:11.931
01:54:39.998                             : en:01:54:39.998
02:03:20.184                             : en:02:03:20.184
02:07:28.015                             : en:02:07:28.015
02:17:12.850                             : en:02:17:12.850
02:25:25.467                             : en:02:25:25.467
02:32:08.619                             : en:02:32:08.619
02:36:38.723                             : en:02:36:38.723
02:44:19.266                             : en:02:44:19.266
02:53:04.291                             : en:02:53:04.291

Бюджет фильма: $100 000 000
Премьера (мир): 17 декабря 2013
Премьера (РФ): 6 февраля 2014,
«West»






pb.wtf



Скачать Волк с Уолл-стрит через торрент http://pic.kartinco.top/new/img/2014-08/09/7f4ohqrume8l0n1p2umut5ldp.png Скачать фильм Волк с Уолл-стрит через торрент бесплантно в хорошем качестве Описание: 1987 год. Джордан Белфорт становится брокером в успешном инвестиционном банке. Вскоре банк закрывается после внезапного обвала ... 9.4 10 20
Info! Золотая раздача, скачанное не засчитывается.
Торрент: Зарегистрирован [2014-08-01 17:57] · скачан: 373 раз
Статус: √ проверено
Размер: 19.86 GB
Как cкачать? Как скачать Волк с Уолл-стрит через торрент | qTorrent

% Раздел Тема Автор DL S | L
Фильмы (BDRip, HDrip-AVC) (48-60 fps) [ 3.95 GB ] Волк с Уолл-стрит / The Wolf of Wall Street [2013 BDRip-AVC 60fps Dub] от R.G. HD-Films Tiberiumsun69 Скачать
74 | 2
Фильмы (Blu-ray, BD-Remux, HDDVD) [ 33.57 GB ] Волк с Уолл-стрит / The Wolf of Wall Street [2013 BD-Remux ] от R.G. HD-Films Seedtank Скачать
1 | 0


Последний раз редактировалось: Seedtank (2014-08-09 16:40), всего редактировалось 3 раз(а)

28-11-2019 20:33  

Отключить всю рекламу на сайте

01-08-2014 17:58 Волк с Уолл-стрит Скачать торрент  

Релиз подготовлен специально для piratbit.cc
Вшита обложка.
pb.wtf



01-08-2014 18:03 Волк с Уолл-стрит Скачать торрент  

Молодцом наш размерчик)pb.wtf



13-03-2016 13:40 Волк с Уолл-стрит Скачать торрент  

Встаньте на раздачу.pb.wtf



    Дорогой пользователь! Огромная просьба, поблагодарите релизера, оцените раздачу и оставьте свои комментарий, если Вы скачали Волк с Уолл-стрит через торрент бесплатно! Внесите свою лепту в развитие PiratBit!
    Комментировать посты могут только пользователи прошедшие не сложную регистрацию
    Показать сообщения:    

    Волк с Уолл-стрит через торрент
    Скачать бесплатно Волк с Уолл-стрит
    Волк с Уолл-стрит скачать торрент
    Волк с Уолл-стрит смотреть онлайн
    Cкачать фильм Волк с Уолл-стрит бесплатно
    Волк с Уолл-стрит скачать торрент в хорошем качестве
    Волк с Уолл-стрит смотреть онлайн бесплатно в хорошем качестве


    Вы не можете начинать темы
    Вы не можете отвечать на сообщения
    Вы не можете редактировать свои сообщения
    Вы не можете удалять свои сообщения
    Вы не можете голосовать в опросах
    Вы не можете прикреплять файлы к сообщениям
    Вы можете скачивать файлы