Ссылка на приватное зеркало всего за 1$. Внимание количество ограничено!!!

iTunes

1+1

iTunes

мы

WEB-DL

1

iTunes

Чернобыль

iTunes

Ральф против интернета

Лицензия

ПШазам

Лицензия

Оно 2

Лицензия

30
pack

Вам бонус

ВАЖНО

!!Акция!!

Alien_RageХит недели

RePack

Resident Evil 21

ИГРА 18+

pack

RePack

jed

!!Акция!!

Alien_Rage

RePack

fifa19

RePack

Assassins Creed: Odyssey

RePack

NEED FOR SPEED™ PAYBACK

3 сезон

9 сезон

Бесстыжие 9 сезон

Все сериалы

все сериалы на PB.wtf

RePack

FAR CRY 5
Ребята, катастрофически не хватает 1900р. для оплаты серверов за Октябрь (всвязи с блокировками трафик упал в 3 раза), 1-2р., выручайте.
  

День ВДВ:Точка отсчета (Виктор Туров) [1979 г., Военный, IPTVRip] pb.wtf

День ВДВ:Точка отсчета через торрент pb.wtf

Размер: 1.02 GB | Добавлен: 5 лет 4 мес. назад | Торрент скачан:117 раз
Скачать  

01-08-2014 19:52 День ВДВ:Точка отсчета Скачать торрент  

День ВДВ:Точка отсчета
Год выпуска: 1979
Страна: СССР, Беларусьфильм
Жанр: Военный
Продолжительность: 01:35:28

Режиссер: Виктор Туров
Сценарий: Владимир Акимов, Валентин Ежов

Премьера в мире: 2 февраля 1981



В ролях: Юрий Демич,Пётр Юрченков cт., Ольга Лысенко, Анатолий Ромашин, Николай Кочегаров, Василий Петренко, Андрей Градов

Описание: В ритм солдатских будней Валентин Воронов вошел легко. Одаренный от природы прекрасными физическими данными, он не скрывал от ровесников по призыву, что хочет стать первым среди них, как был первым среди парней своей округи. В достижении своей цели Воронов не гнушался ничем: на занятиях по вождению на трудном вираже он завалил в кювет вездеход своего главного конкурента Сергея Кольцова; над расторопным и умным Ваней Кукиным он постоянно насмехался. Воронов добьется своего: ему присвоят звание младшего сержанта, ему доверят отделение. Но наступят боевые учения, когда скажется моральная и нравственная неподготовленность Валентина к командованию людьми ...

Качество: IPTVRip
Формат: AVI
Видео кодек: XviD
Аудио кодек: MP3
Видео: Xvid 704x528, 25.00fps, 1 396 Kbps
Аудио: MPEG Audio Layer 3, 48000Hz, stereo,128kbps
Релиз от: Olseven





General
Complete name : E:\05 05 2013\Tochka.otscheta.1979.XviD.IPTVRip-Kinozal.tv.avi
Format : AVI
Format/Info : Audio Video Interleave
File size : 1.02 GiB
Duration : 1h 35mn
Overall bit rate : 1 534 Kbps
Writing application : VirtualDubMod 1.5.10.2 (build 2540/release)
Writing library : VirtualDubMod build 2540/release

Video
ID : 0
Format : MPEG-4 Visual
Format profile : Advanced Simple@L5
Format settings, BVOP : 1
Format settings, QPel : No
Format settings, GMC : No warppoints
Format settings, Matrix : Default (MPEG)
Codec ID : XVID
Codec ID/Hint : XviD
Duration : 1h 35mn
Bit rate : 1 396 Kbps
Width : 704 pixels
Height : 528 pixels
Display aspect ratio : 4:3
Frame rate : 25.000 fps
Color space : YUV
Chroma subsampling : 4:2:0
Bit depth : 8 bits
Scan type : Progressive
Compression mode : Lossy
Bits/(Pixel*Frame) : 0.150
Stream size : 953 MiB (91%)
Writing library : XviD 1.2.1 (UTC 2008-12-04)

Audio
ID : 1
Format : MPEG Audio
Format version : Version 1
Format profile : Layer 3
Codec ID : 55
Codec ID/Hint : MP3
Duration : 1h 35mn
Bit rate mode : Constant
Bit rate : 128 Kbps
Channel(s) : 2 channels
Sampling rate : 48.0 KHz
Compression mode : Lossy
Stream size : 87.4 MiB (8%)
Alignment : Aligned on interleaves
Interleave, duration : 40 ms (1.00 video frame)
Interleave, preload duration : 504 ms
Writing library : LAME3.98r
Encoding settings : -m s -V 4 -q 2 -lowpass 17 -b 128

pb.wtf



Скачать День ВДВ:Точка отсчета через торрент http://pic.kartinco.top/images/6/n98ni.jpg Скачать фильм День ВДВ:Точка отсчета через торрент бесплантно в хорошем качестве Описание: В ритм солдатских будней Валентин Воронов вошел легко. Одаренный от природы прекрасными физическими данными, он не скрывал от ... 10 10 9
Торрент: Зарегистрирован [2014-08-01 19:52] · скачан: 117 раз
Статус: √ проверено
Размер: 1.02 GB
Как cкачать? Как скачать День ВДВ:Точка отсчета через торрент | qTorrent

28-11-2019 20:33  

Отключить всю рекламу на сайте

01-08-2014 22:45 День ВДВ:Точка отсчета Скачать торрент  

У Юрия Демича я был на встрече,после этого показали фильм,мне актер очень понравился.Ю. А. Демич скончался 24 декабря 1990 года из-за сильного кровотечения вследствие разрыва вен пищевода. Похоронен в Москве, на Ваганьковском кладбище.Светлая ему память....Сын Александр (р. 1970) также снимается в кино. Играл в сериале «Улицы разбитых фонарей».pb.wtf



    Дорогой пользователь! Огромная просьба, поблагодарите релизера, оцените раздачу и оставьте свои комментарий, если Вы скачали День ВДВ:Точка отсчета через торрент бесплатно! Внесите свою лепту в развитие PiratBit!
    Комментировать посты могут только пользователи прошедшие не сложную регистрацию
    Показать сообщения:    

    День ВДВ:Точка отсчета через торрент
    Скачать бесплатно День ВДВ:Точка отсчета
    День ВДВ:Точка отсчета скачать торрент
    День ВДВ:Точка отсчета смотреть онлайн
    Cкачать фильм День ВДВ:Точка отсчета бесплатно
    День ВДВ:Точка отсчета скачать торрент в хорошем качестве
    День ВДВ:Точка отсчета смотреть онлайн бесплатно в хорошем качестве


    Вы не можете начинать темы
    Вы не можете отвечать на сообщения
    Вы не можете редактировать свои сообщения
    Вы не можете удалять свои сообщения
    Вы не можете голосовать в опросах
    Вы не можете прикреплять файлы к сообщениям
    Вы можете скачивать файлы