новый адрес
Ссылка на приватное зеркало всего за 1$. Внимание количество ограничено!!!

iTunes

1+1

iTunes

мы

WEB-DL

1

iTunes

Чернобыль

iTunes

Ральф против интернета

Лицензия

ПШазам

Лицензия

Оно 2

Лицензия

30
pack

Вам бонус

ВАЖНО

!!Акция!!

Alien_RageХит недели

RePack

Resident Evil 21

ИГРА 18+

pack

RePack

jed

!!Акция!!

Alien_Rage

RePack

fifa19

RePack

Assassins Creed: Odyssey

RePack

NEED FOR SPEED™ PAYBACK

3 сезон

9 сезон

Бесстыжие 9 сезон

Все сериалы

все сериалы на PB.wtf

RePack

FAR CRY 5
Ребята, катастрофически не хватает 1900р. для оплаты серверов за Октябрь (всвязи с блокировками трафик упал в 3 раза), 1-2р., выручайте.
  

День ВДВ: Голубые молнии (Исаак Шмарук) [1978 г., Драма, приключения, DVDRip] pb.wtf

День ВДВ: Голубые молнии через торрент pb.wtf

Размер: 1.37 GB | Добавлен: 5 лет 4 мес. назад | Торрент скачан:130 раз
Скачать  

01-08-2014 20:32 День ВДВ: Голубые молнии Скачать торрент  

День ВДВ: Голубые молнии
Год выпуска: 1978
Страна: СССР, Киностудия им. А. Довженко
Жанр: Драма, приключения
Продолжительность: 01:21:22

Режиссер: Исаак Шмарук
Сценарий: Александр Кулешов, Кирилл Рапопорт



В ролях: Андрей Градов, Ольга Жулина, Сергей Подгорный, Виктор Бутов, Юрий Каморный, Николай Воронин

Описание: Юный столичный пижон, не поступив в престижный институт, оказался в армии. Более того, его призвали в десантные войска. И пришлось избалованному парню привыкать к совсем другой жизни, постигая нелегкую армейскую науку…

Качество: DVDRip
Формат: AVI
Видео кодек: DivX
Аудио кодек: MP3
Видео: DivX 5 720x384, 25.00fps, 2 214 Kbps
Аудио: MPEG Audio Layer 3, 48000Hz, stereo, 178kbps
Релиз от: blazer






General
Complete name : E:\05 05 2013\Golubie.molnii.1979.DivX.DVDRip.Kinozal.tv.avi
Format : AVI
Format/Info : Audio Video Interleave
File size : 1.37 GiB
Duration : 1h 21mn
Overall bit rate mode : Variable
Overall bit rate : 2 406 Kbps
Writing application : VirtualDubMod 1.5.4.1 (build 2178/release)
Writing library : VirtualDubMod build 2178/release

Video
ID : 0
Format : MPEG-4 Visual
Format settings, BVOP : 1
Format settings, QPel : No
Format settings, GMC : No warppoints
Format settings, Matrix : Default (H.263)
Muxing mode : Packed bitstream
Codec ID : DX50
Codec ID/Hint : DivX 5
Duration : 1h 21mn
Bit rate : 2 214 Kbps
Width : 720 pixels
Height : 384 pixels
Display aspect ratio : 1.875
Frame rate : 25.000 fps
Color space : YUV
Chroma subsampling : 4:2:0
Bit depth : 8 bits
Scan type : Progressive
Compression mode : Lossy
Bits/(Pixel*Frame) : 0.320
Stream size : 1.26 GiB (92%)
Writing library : DivX 6.8.0 (UTC 2007-12-04)

Audio
ID : 1
Format : MPEG Audio
Format version : Version 1
Format profile : Layer 3
Mode : Joint stereo
Mode extension : MS Stereo
Codec ID : 55
Codec ID/Hint : MP3
Duration : 1h 21mn
Bit rate mode : Variable
Bit rate : 179 Kbps
Nominal bit rate : 192 Kbps
Channel(s) : 2 channels
Sampling rate : 48.0 KHz
Compression mode : Lossy
Stream size : 104 MiB (7%)
Alignment : Aligned on interleaves
Interleave, duration : 24 ms (0.60 video frame)
Interleave, preload duration : 524 ms
Writing library : LAME3.97
Encoding settings : -m j -V 4 -q 2 -lowpass 18.6 --abr 192

pb.wtf



Скачать День ВДВ: Голубые молнии через торрент http://pic.kartinco.top/images/6/6ykts.jpg Скачать фильм День ВДВ: Голубые молнии через торрент бесплантно в хорошем качестве Описание: Юный столичный пижон, не поступив в престижный институт, оказался в армии. Более того, его призвали в десантные войска. И ... 10 10 8
Info! Золотая раздача, скачанное не засчитывается.
Торрент: Зарегистрирован [2014-08-01 20:32] · скачан: 130 раз
Статус: √ проверено
Размер: 1.37 GB
Как cкачать? Как скачать День ВДВ: Голубые молнии через торрент | qTorrent

28-11-2019 20:33  

Отключить всю рекламу на сайте

    Дорогой пользователь! Огромная просьба, поблагодарите релизера, оцените раздачу и оставьте свои комментарий, если Вы скачали День ВДВ: Голубые молнии через торрент бесплатно! Внесите свою лепту в развитие PiratBit!
    Комментировать посты могут только пользователи прошедшие не сложную регистрацию
    Показать сообщения:    

    День ВДВ: Голубые молнии через торрент
    Скачать бесплатно День ВДВ: Голубые молнии
    День ВДВ: Голубые молнии скачать торрент
    День ВДВ: Голубые молнии смотреть онлайн
    Cкачать фильм День ВДВ: Голубые молнии бесплатно
    День ВДВ: Голубые молнии скачать торрент в хорошем качестве
    День ВДВ: Голубые молнии смотреть онлайн бесплатно в хорошем качестве


    Вы не можете начинать темы
    Вы не можете отвечать на сообщения
    Вы не можете редактировать свои сообщения
    Вы не можете удалять свои сообщения
    Вы не можете голосовать в опросах
    Вы не можете прикреплять файлы к сообщениям
    Вы можете скачивать файлы