новый адрес пиратбит piratbit
Мега распродажа FORZA HORIZON 4 ULTIMATE+ВСЕ DLC+ОНЛАЙН всего за 499р. 349 руб. (супер цена). Внимание количество ограничено!!!

iTunes

1+1

iTunes

мы

iTunes

1

iTunes

Чернобыль

iTunes

Ральф против интернета

Лицензия

ПШазам

Лицензия

Игра престолов

Лицензия

30
pack

ВАЖНО

!!Акция!!

Alien_RageХит недели

RePack

Resident Evil 21

ИГРА 18+

pack

RePack

Metro:Exodus

!!Акция!!

Alien_Rage

RePack

fifa19

RePack

Assassins Creed: Odyssey

RePack

NEED FOR SPEED™ PAYBACK

3 сезон

9 сезон

Бесстыжие 9 сезон

Все сериалы

все сериалы на PB.wtf

RePack

FAR CRY 5
Ребята, катастрофически не хватает 1900р. для оплаты серверов за Октябрь (всвязи с блокировками трафик упал в 3 раза), 1-2р., выручайте.
  

День ВДВ: В зоне особого внимания (Андрей Малюков) [1977 г., Боевик, приключения, DVDRip] pb.wtf

День ВДВ: В зоне особого внимания через торрент pb.wtf

Размер: 1.36 GB | Добавлен: 5 лет 3 мес. назад | Торрент скачан:156 раз
Скачать  

01-08-2014 21:15 День ВДВ: В зоне особого внимания Скачать торрент  

День ВДВ: В зоне особого внимания
Год выпуска: 1977
Страна: СССР, Мосфильм
Жанр: Боевик, приключения
Продолжительность: 01:32:17
Режиссер: Андрей Малюков
Сценарий: Евгений Месяцев

Премьера в мире: 23 февраля 1978

В ролях: Борис Галкин, Михай Волонтир, Сергей Волкош, Игорь Иванов, Анатолий Кузнецов, Александр Пятков, Анатолий Веденкин, Олег Голубицкий, Владимир Заманский, Михаил Кокшенов, Юрий Чернов, Борис Бачурин, Михаил Чигарев, Геннадий Чулков, Александр Гай, Иван Агафонов, Елена Кузьмина, Николай Крюков, Елена Цыплакова, Владимир Ткалич, Владимир Дашкевич, Тадеуш Касьянов, Сергей Подгорный, Владас Радвилавичюс, Витаутас Румшас, Эгле Габренайте, Ирена Леонавичюте-Браткаускене
Описание: Готовятся большие военные учения. Командир гвардейского полка направляет в тыл "врага" три развед-диверсионные группы для обнаружения и захвата замаскированного командного пункта. Срок исполнения - двое суток. Разведчики выполняют задание в условиях, максимально приближенных к бою...
Качество: DVDRip
Формат: AVI
Видео кодек: XviD
Аудио кодек: AC3
Видео: Xvid 704x384, 25.00fps, 1 914 Kbps
Аудио: Dolby AC3, 48000Hz, stereo, 192kbps
Релиз от: virgana





General
Complete name : C:\VDV\V.Zone.Osobogo.Vnimaniya.1978.XviD.DVDRip.Kinozal.TV.avi
Format : AVI
Format/Info : Audio Video Interleave
File size : 1.36 GiB
Duration : 1h 32mn
Overall bit rate : 2 116 Kbps
Writing application : VirtualDubMod 1.5.10.2 (build 2540/release)
Writing library : VirtualDubMod build 2540/release

Video
ID : 0
Format : MPEG-4 Visual
Format profile : Advanced Simple@L5
Format settings, BVOP : 2
Format settings, QPel : No
Format settings, GMC : No warppoints
Format settings, Matrix : Default (MPEG)
Muxing mode : Packed bitstream
Codec ID : XVID
Codec ID/Hint : XviD
Duration : 1h 32mn
Bit rate : 1 914 Kbps
Width : 704 pixels
Height : 384 pixels
Display aspect ratio : 16:9
Frame rate : 25.000 fps
Color space : YUV
Chroma subsampling : 4:2:0
Bit depth : 8 bits
Scan type : Progressive
Compression mode : Lossy
Bits/(Pixel*Frame) : 0.283
Stream size : 1.23 GiB (90%)
Writing library : XviD 58

Audio
ID : 1
Format : AC-3
Format/Info : Audio Coding 3
Mode extension : CM (complete main)
Codec ID : 2000
Duration : 1h 32mn
Bit rate mode : Constant
Bit rate : 192 Kbps
Channel(s) : 2 channels
Channel positions : Front: L R
Sampling rate : 48.0 KHz
Bit depth : 16 bits
Compression mode : Lossy
Stream size : 127 MiB (9%)
Alignment : Split accross interleaves
Interleave, duration : 40 ms (1.00 video frame)
Interleave, preload duration : 500 ms

pb.wtf



Скачать День ВДВ: В зоне особого внимания через торрент http://pic.kartinco.top/images/6/7xi31.jpg Скачать фильм День ВДВ: В зоне особого внимания через торрент бесплантно в хорошем качестве Описание: Готовятся большие военные учения. Командир гвардейского полка направляет в тыл "врага" три развед-диверсионные группы для ... 9.9 10 9
Торрент: Зарегистрирован [2014-08-01 21:15] · скачан: 156 раз
Статус: √ проверено
Размер: 1.36 GB
Как cкачать? Как скачать День ВДВ: В зоне особого внимания через торрент | qTorrent


>> Регистрируемся здесь <<






Отзывы и комментарии о схеме читаем и пишем здесь: ---> Отзывы и комментарии о схеме

Новые благодарочки в телеграм довольных пользователей:
скриншот   скриншот   скриншот   скриншот   скриншот
    Дорогой пользователь! Огромная просьба, поблагодарите релизера, оцените раздачу и оставьте свои комментарий, если Вы скачали День ВДВ: В зоне особого внимания через торрент бесплатно! Внесите свою лепту в развитие PiratBit!
    Комментировать посты могут только пользователи прошедшие не сложную регистрацию
    Показать сообщения:    

    День ВДВ: В зоне особого внимания через торрент
    Скачать бесплатно День ВДВ: В зоне особого внимания
    День ВДВ: В зоне особого внимания скачать торрент
    День ВДВ: В зоне особого внимания смотреть онлайн
    Cкачать фильм День ВДВ: В зоне особого внимания бесплатно
    День ВДВ: В зоне особого внимания скачать торрент в хорошем качестве
    День ВДВ: В зоне особого внимания смотреть онлайн бесплатно в хорошем качестве


    Вы не можете начинать темы
    Вы не можете отвечать на сообщения
    Вы не можете редактировать свои сообщения
    Вы не можете удалять свои сообщения
    Вы не можете голосовать в опросах
    Вы не можете прикреплять файлы к сообщениям
    Вы можете скачивать файлы