новый адрес
Мега распродажа FORZA HORIZON 4 ULTIMATE+ВСЕ DLC+ОНЛАЙН всего за 499р. 349 руб. (супер цена). Внимание количество ограничено!!!

iTunes

1+1

iTunes

мы

iTunes

1

iTunes

Чернобыль

iTunes

Ральф против интернета

Лицензия

ПШазам

Лицензия

Оно 2

Лицензия

30
pack

ВАЖНО

!!Акция!!

Alien_RageХит недели

RePack

Resident Evil 21

ИГРА 18+

pack

RePack

jed

!!Акция!!

Alien_Rage

RePack

fifa19

RePack

Assassins Creed: Odyssey

RePack

NEED FOR SPEED™ PAYBACK

3 сезон

9 сезон

Бесстыжие 9 сезон

Все сериалы

все сериалы на PB.wtf

RePack

FAR CRY 5
Ребята, катастрофически не хватает 1900р. для оплаты серверов за Октябрь (всвязи с блокировками трафик упал в 3 раза), 1-2р., выручайте.
  

День ВДВ: Ответный ход (Михаил Туманишвили) [1981 г., Боевик, Приключения, Военный, DVDRip] pb.wtf

День ВДВ: Ответный ход через торрент pb.wtf

Размер: 1.4 GB | Добавлен: 5 лет 3 мес. назад | Торрент скачан:106 раз
Скачать  

01-08-2014 21:44 День ВДВ: Ответный ход Скачать торрент  

День ВДВ: Ответный ход
Год выпуска: 1981
Страна: СССР, Мосфильм
Жанр: Боевик, Приключения, Военный
Продолжительность: 01:19:42
Режиссер: Михаил Туманишвили
Сценарий: Евгений Месяцев

Премьера в мире: 28 мая 1981

В ролях: Борис Галкин, Вадим Спиридонов, Валентина Березуцкая, Елена Глебова, Анатолий Кузнецов, Михай Волонтир, Александр Пятков, Лаймонас Норейка, Даниил Нетребин, Владимир Маренков, Михаил Чигарев, Анатолий Ромашин, Леонид Белозорович, Михаил Лещинский, Семен Морозов, Юрий Савельев, Юрий Захаренков, Валерий Хромушкин
Описание: Командование южных решает послать в тыл северных диверсионную группу в составе Тарасова, Волентира и двух морпехов: Швеца и Зиновьевой. Диверсанты захватывают подполковника Морошкина из группы «Северных», который намеренно подставился, спрятав на теле скрытый передатчик. Тарасов разгадывает замысел, его группа проникает на аэродром северных и отбирает секретные документы у офицера северных. Лыков преследует диверсантов на бронетранспортёре, Волентир ослепляет БТР, машина разносит мост и падает в болото, Волентир тяжело ранен обломками моста. Швец и Тарасов помогают северным вылезти из машины, Зиновьева едет на побережье и передаёт документы. Южные переходят в победоносное наступление.
Качество: DVDRip
Формат: AVI
Видео кодек: DivX
Аудио кодек: AC3
Видео: DivX 5 672x288, 25.00fps, 2 311 Kbps
Аудио: Dolby AC3, 48000Hz, stereo, 192kbps
Релиз от: ab5144





General
Complete name : C:\VDV\otvetniy_hod_ac3192kbbs.avi
Format : AVI
Format/Info : Audio Video Interleave
File size : 1.40 GiB
Duration : 1h 19mn
Overall bit rate : 2 513 Kbps
Writing application : VirtualDubModRus 1.5.10.2 (build 2542/release)
Writing library : VirtualDubMod build 2542/release

Video
ID : 0
Format : MPEG-4 Visual
Format profile : Advanced Simple@L5
Format settings, BVOP : 1
Format settings, QPel : Yes
Format settings, GMC : No warppoints
Format settings, Matrix : Default (MPEG)
Codec ID : DX50
Codec ID/Hint : DivX 5
Duration : 1h 19mn
Bit rate : 2 311 Kbps
Width : 672 pixels
Height : 288 pixels
Display aspect ratio : 2.35:1
Frame rate : 25.000 fps
Color space : YUV
Chroma subsampling : 4:2:0
Bit depth : 8 bits
Scan type : Progressive
Compression mode : Lossy
Bits/(Pixel*Frame) : 0.478
Stream size : 1.29 GiB (92%)
Writing library : XviD 1.2.1 (UTC 2008-12-04)

Audio
ID : 1
Format : AC-3
Format/Info : Audio Coding 3
Mode extension : CM (complete main)
Codec ID : 2000
Duration : 1h 19mn
Bit rate mode : Constant
Bit rate : 192 Kbps
Channel(s) : 2 channels
Channel positions : Front: L R
Sampling rate : 48.0 KHz
Bit depth : 16 bits
Compression mode : Lossy
Delay relative to video : 300ms
Stream size : 109 MiB (8%)
Alignment : Split accross interleaves
Interleave, duration : 40 ms (1.00 video frame)
Interleave, preload duration : 500 ms

pb.wtf



Скачать День ВДВ: Ответный ход через торрент http://pic.kartinco.top/images/6/7zdne.jpg Скачать фильм День ВДВ: Ответный ход через торрент бесплантно в хорошем качестве Описание: Командование южных решает послать в тыл северных диверсионную группу в составе Тарасова, Волентира и двух морпехов: Швеца и ... 10 10 9
Info! Золотая раздача, скачанное не засчитывается.
Торрент: Зарегистрирован [2014-08-01 21:44] · скачан: 106 раз
Статус: √ проверено
Размер: 1.4 GB
Как cкачать? Как скачать День ВДВ: Ответный ход через торрент | qTorrent


>> Регистрируемся здесь <<






Отзывы и комментарии о схеме читаем и пишем здесь: ---> Отзывы и комментарии о схеме

Новые благодарочки в телеграм довольных пользователей:
скриншот   скриншот   скриншот   скриншот   скриншот
    Дорогой пользователь! Огромная просьба, поблагодарите релизера, оцените раздачу и оставьте свои комментарий, если Вы скачали День ВДВ: Ответный ход через торрент бесплатно! Внесите свою лепту в развитие PiratBit!
    Комментировать посты могут только пользователи прошедшие не сложную регистрацию
    Показать сообщения:    

    День ВДВ: Ответный ход через торрент
    Скачать бесплатно День ВДВ: Ответный ход
    День ВДВ: Ответный ход скачать торрент
    День ВДВ: Ответный ход смотреть онлайн
    Cкачать фильм День ВДВ: Ответный ход бесплатно
    День ВДВ: Ответный ход скачать торрент в хорошем качестве
    День ВДВ: Ответный ход смотреть онлайн бесплатно в хорошем качестве


    Вы не можете начинать темы
    Вы не можете отвечать на сообщения
    Вы не можете редактировать свои сообщения
    Вы не можете удалять свои сообщения
    Вы не можете голосовать в опросах
    Вы не можете прикреплять файлы к сообщениям
    Вы можете скачивать файлы