Ссылка на приватное зеркало нашего сайта всего за 1$. Внимание количество ограничено!!!

2 сезон

iTunes

1 сезон

1

2 сезон

2 сезон

iTunes

1 сезон

RePack

30

Ultimate

ВАЖНО

ИГРА 18+

pack

RePack

MK11
pack

Забери бонус

RePack

jed

!!Акция!!

Alien_Rage

RePack

fifa19

RePack

Assassins Creed: Odyssey

RePack

NEED FOR SPEED™ PAYBACK

4 сезон

9 сезон

Бесстыжие 9 сезон

Все сериалы

все сериалы на PB.wtf

RePack

FAR CRY 5
  

Лотерея / The Lottery / Сезон: 1 / Серии 1-8 из 10 (Дэнни Кэннон / Danny Cannon) [2014 , США, фантастика, HDTVRip, MVO] [BaibaKo] pb.wtf

Лотерея через торрент pb.wtf

Размер: 4.41 GB | Добавлен: 6 лет 2 мес. назад | Торрент скачан:19 раз
Скачать  

02-08-2014 00:32 Лотерея Скачать торрент  

Лотерея / The Lottery


  • Год выпуска: 2014

  • Страна: США
  • Жанр: фантастика
  • Продолжительность: 00:41:51(Серия)
  • Перевод: Профессиональный многоголосый закадровый) [BaibaKo]

  • Режиссер: Дэнни Кэннон / Danny Cannon
  • В ролях:

    Марли Шелтон (Dr. Alison Lennon), Афина Карканис (Vanessa Keller), Майкл Грациадей (Kyle), Дэвид Алпей (James), Мартин Донован (Darius Hayes), Jesse Filkow (Elvis Walker), Юл Васкес (President), Пол Кэссел (Jack Kerr), Гари Уилмс (Adam Horvath), Бен Холлингсворт (Elliot Rowe), Шелли Конн (Gabrielle), Дж. Аугуст Ричардс

  • Описание:
    В 2025 году, мир переживает кризис рождаемости. Женщины не могут забеременеть, а человеческая раса находится на грани вымирания. За 6 лет родились только 6 детей и находятся под бдительным оком правительства США. Одной ученой удается успешно оплодотворить 100 яйцеклеток, после чего правительство решает провести лотерею, чтобы подыскать подходящих суррогатных матерей.
  • Рейтинг:



  • Качество: HDTVRip
  • Формат: :MPEG-4
  • Видео кодек: AVC
  • Аудио кодек: AAC LC
  • Видео: 720x400 (16:9), 1536 kbps, 23,976 fps, 0,222 bpp
  • Аудио №1: русский / 2.0 / 48 kHz / 192 kbps
  • Аудио №2: английский / 2.0 / 48 kHz / 192 kbps
  • Релиз от: GEKADOL

    Не нашли то, что искали? Для вас "Стол заказов" "Жмём сюда!"

    Код:

    Внимание! Раздача ведётся путём добавления новых серий; при каждом добавлении создаётся новый торрент. Чтобы начать докачку новой серии, пользователям необходимо сделать следующее:
    (1) остановить скачивание,
    (2) удалить старый торрент у себя из клиента (старые серии удалять не надо),
    (3) скачать новый торрент и запустить его у себя в клиенте вместо старого, при этом указать клиенту путь в старую папку куда и должно происходить скачивание новых серий.
    Ваш клиент при этом должен произвести хеширование (проверку) старой папки (если не производит сам - помогите ему сделать это), и будет докачивать только те серии которых у вас ещё нет. Старые серии при этом не удаляются, а продолжают раздаваться!
    Eсли вы уже удалили старые серии, то предотвратить повторную закачку старых серий можно, отжав галочку в соответсвующих местах при запуске нового торрента. По возможности, желательно не удалять старые серии как можно дольше чтобы релизёр не столько продолжал раздавать старые серии, а смог сконцентрироваться на новых.


    Код:

    General
    Complete name                            : G:\Лотерея(1 Сезон)\The.Lottery.s01e02.HDTVRip.x264.Rus.Eng.BaibaKo.tv.mp4
    Format                                   : MPEG-4
    Format profile                           : Base Media
    Codec ID                                 : isom
    File size                                : 575 MiB
    Duration                                 : 41mn 51s
    Overall bit rate mode                    : Variable
    Overall bit rate                         : 1 919 Kbps
    Encoded date                             : UTC 2014-08-01 18:47:38
    Tagged date                              : UTC 2014-08-01 18:47:38

    Video
    ID                                       : 1
    Format                                   : AVC
    Format/Info                              : Advanced Video Codec
    Format profile                           : Baseline@L3.0
    Format settings, CABAC                   : No
    Format settings, ReFrames                : 3 frames
    Codec ID                                 : avc1
    Codec ID/Info                            : Advanced Video Coding
    Duration                                 : 41mn 51s
    Bit rate                                 : 1 536 Kbps
    Maximum bit rate                         : 7 443 Kbps
    Width                                    : 720 pixels
    Height                                   : 400 pixels
    Display aspect ratio                     : 16:9
    Frame rate mode                          : Variable
    Frame rate                               : 23.976 fps
    Minimum frame rate                       : 23.974 fps
    Maximum frame rate                       : 23.981 fps
    Color space                              : YUV
    Chroma subsampling                       : 4:2:0
    Bit depth                                : 8 bits
    Scan type                                : Progressive
    Bits/(Pixel*Frame)                       : 0.222
    Stream size                              : 460 MiB (80%)
    Writing library                          : x264 core 130 r2273 b3065e6
    Encoding settings                        : cabac=0 / ref=3 / deblock=1:0:0 / analyse=0x1:0x111 / me=hex / subme=7 / psy=1 / psy_rd=1.00:0.00 / mixed_ref=1 / me_range=16 / chroma_me=1 / trellis=1 / 8x8dct=0 / cqm=0 / deadzone=21,11 / fast_pskip=1 / chroma_qp_offset=-2 / threads=12 / lookahead_threads=2 / sliced_threads=0 / nr=0 / decimate=1 / interlaced=0 / bluray_compat=0 / constrained_intra=0 / bframes=0 / weightp=0 / keyint=240 / keyint_min=24 / scenecut=40 / intra_refresh=0 / rc_lookahead=40 / rc=2pass / mbtree=1 / bitrate=1536 / ratetol=1.0 / qcomp=0.60 / qpmin=0 / qpmax=69 / qpstep=4 / cplxblur=20.0 / qblur=0.5 / ip_ratio=1.40 / aq=1:1.00
    Encoded date                             : UTC 2014-08-01 10:56:03
    Tagged date                              : UTC 2014-08-01 18:48:59
    Color primaries                          : BT.709-5, BT.1361, IEC 61966-2-4, SMPTE RP177
    Transfer characteristics                 : BT.709-5, BT.1361
    Matrix coefficients                      : BT.709-5, BT.1361, IEC 61966-2-4 709, SMPTE RP177

    Audio #1
    ID                                       : 2
    Format                                   : AAC
    Format/Info                              : Advanced Audio Codec
    Format profile                           : LC
    Codec ID                                 : 67
    Duration                                 : 41mn 51s
    Bit rate mode                            : Variable
    Bit rate                                 : 192 Kbps
    Maximum bit rate                         : 196 Kbps
    Channel(s)                               : 2 channels
    Channel positions                        : Front: L R
    Sampling rate                            : 48.0 KHz
    Compression mode                         : Lossy
    Stream size                              : 56.7 MiB (10%)
    Language                                 : Russian
    Encoded date                             : UTC 2014-08-01 18:48:41
    Tagged date                              : UTC 2014-08-01 18:48:59

    Audio #2
    ID                                       : 3
    Format                                   : AAC
    Format/Info                              : Advanced Audio Codec
    Format profile                           : LC
    Codec ID                                 : 67
    Duration                                 : 41mn 51s
    Bit rate mode                            : Variable
    Bit rate                                 : 192 Kbps
    Maximum bit rate                         : 197 Kbps
    Channel(s)                               : 2 channels
    Channel positions                        : Front: L R
    Sampling rate                            : 48.0 KHz
    Compression mode                         : Lossy
    Stream size                              : 56.7 MiB (10%)
    Language                                 : English
    Encoded date                             : UTC 2014-08-01 18:48:52
    Tagged date                              : UTC 2014-08-01 18:48:59


    Скриншоты:
    скриншот   скриншот   скриншот   скриншот   скриншот  

    Раздача ведётся путём добавления новых серий. Добавлена 8 серия (19.08.2014).Просьба перекачать торрент файл.

    pb.wtf



  • Скачать Лотерея через торрент http://i65.fastpic.ru/big/2014/0802/e0/7544ee1c791007560a23eb955519e4e0.jpg Скачать фильм Лотерея через торрент бесплантно в хорошем качестве Описание: В 2025 году, мир переживает кризис рождаемости. Женщины не могут забеременеть, а человеческая раса находится на грани вымирания. ... 10 10 4
    Info! Серебряная раздача, засчитывается только 50% скачанного.
    Торрент: Зарегистрирован [2014-09-19 11:30] · скачан: 19 раз
    Статус: √ проверено
    Размер: 4.41 GB
    Как cкачать? Как скачать Лотерея через торрент | qTorrent

    % Раздел Тема Автор DL S | L
    Зарубежные сериалы [ 10.74 GB ] Лотерея / The Lottery / Сезон: 1 / Серии 1-8 из 10 [2014 HDTVRip720 MVO] [BaibaKo] GEKADOL Скачать
    1 | 0

    28-11-2019 20:33  

    Отключить всю рекламу на сайте

      Дорогой пользователь! Огромная просьба, поблагодарите релизера, оцените раздачу и оставьте свои комментарий, если Вы скачали Лотерея через торрент бесплатно! Внесите свою лепту в развитие PiratBit!
      Комментировать посты могут только пользователи прошедшие не сложную регистрацию
      Показать сообщения:    

      Лотерея через торрент
      Скачать бесплатно Лотерея
      Лотерея скачать торрент
      Лотерея смотреть онлайн
      Cкачать фильм Лотерея бесплатно
      Лотерея скачать торрент в хорошем качестве
      Лотерея смотреть онлайн бесплатно в хорошем качестве


      Вы не можете начинать темы
      Вы не можете отвечать на сообщения
      Вы не можете редактировать свои сообщения
      Вы не можете удалять свои сообщения
      Вы не можете голосовать в опросах
      Вы не можете прикреплять файлы к сообщениям
      Вы можете скачивать файлы