Ссылка на приватное зеркало нашего сайта всего за 1$. Внимание количество ограничено!!!

2 сезон

iTunes

1 сезон

1

2 сезон

2 сезон

iTunes

1 сезон

RePack

30

Ultimate

ВАЖНО

ИГРА 18+

pack

RePack

MK11
pack

Забери бонус

RePack

jed

!!Акция!!

Alien_Rage

RePack

fifa19

RePack

Assassins Creed: Odyssey

RePack

NEED FOR SPEED™ PAYBACK

4 сезон

9 сезон

Бесстыжие 9 сезон

Все сериалы

все сериалы на PB.wtf

RePack

FAR CRY 5
  

Лотерея / The Lottery / Сезон: 1 / Серии 1-8 из 10 (Дэнни Кэннон / Danny Cannon) [2014 , США, фантастика, HDTVRip720, MVO] [BaibaKo] pb.wtf

Лотерея через торрент pb.wtf

Размер: 10.74 GB | Добавлен: 6 лет 2 мес. назад | Торрент скачан:8 раз
Скачать  

02-08-2014 00:49 Лотерея Скачать торрент  

Лотерея / The Lottery


  • Год выпуска: 2014

  • Страна: США
  • Жанр: фантастика
  • Продолжительность: 00:41:51(Серия)
  • Перевод: Профессиональный многоголосый закадровый) [BaibaKo]

  • Режиссер: Дэнни Кэннон / Danny Cannon
  • В ролях:

    Марли Шелтон (Dr. Alison Lennon), Афина Карканис (Vanessa Keller), Майкл Грациадей (Kyle), Дэвид Алпей (James), Мартин Донован (Darius Hayes), Jesse Filkow (Elvis Walker), Юл Васкес (President), Пол Кэссел (Jack Kerr), Гари Уилмс (Adam Horvath), Бен Холлингсворт (Elliot Rowe), Шелли Конн (Gabrielle), Дж. Аугуст Ричардс

  • Описание:
    В 2025 году, мир переживает кризис рождаемости. Женщины не могут забеременеть, а человеческая раса находится на грани вымирания. За 6 лет родились только 6 детей и находятся под бдительным оком правительства США. Одной ученой удается успешно оплодотворить 100 яйцеклеток, после чего правительство решает провести лотерею, чтобы подыскать подходящих суррогатных матерей.
  • Рейтинг:



  • Качество: HDTVRip720
  • Формат: :MKV
  • Видео кодек: AVC
  • Аудио кодек: AC3
  • Видео: 1280x720 (16:9), 4096 kbps, 23,976 fps, 0,185 bpp
  • Аудио №1: русский / 5.1 / 48 kHz / 384 kbps / 16 bit
  • Аудио №2: английский / 5.1 / 48 kHz / 384 kbps / 16 bit
  • Релиз от: GEKADOL

    Не нашли то, что искали? Для вас "Стол заказов" "Жмём сюда!"

    Код:

    Внимание! Раздача ведётся путём добавления новых серий; при каждом добавлении создаётся новый торрент. Чтобы начать докачку новой серии, пользователям необходимо сделать следующее:
    (1) остановить скачивание,
    (2) удалить старый торрент у себя из клиента (старые серии удалять не надо),
    (3) скачать новый торрент и запустить его у себя в клиенте вместо старого, при этом указать клиенту путь в старую папку куда и должно происходить скачивание новых серий.
    Ваш клиент при этом должен произвести хеширование (проверку) старой папки (если не производит сам - помогите ему сделать это), и будет докачивать только те серии которых у вас ещё нет. Старые серии при этом не удаляются, а продолжают раздаваться!
    Eсли вы уже удалили старые серии, то предотвратить повторную закачку старых серий можно, отжав галочку в соответсвующих местах при запуске нового торрента. По возможности, желательно не удалять старые серии как можно дольше чтобы релизёр не столько продолжал раздавать старые серии, а смог сконцентрироваться на новых.


    Код:

    General
    Unique ID                                : 240000617803031884632027645440836712329 (0xB48E7009D1B8FE508F54EA923F1B3789)
    Complete name                            : G:\Лотерея(1 Сезон)720\The.Lottery.s01e02.HDTV720p.Rus.Eng.BaibaKo.tv.mkv
    Format                                   : Matroska
    Format version                           : Version 4 / Version 2
    File size                                : 1.42 GiB
    Duration                                 : 41mn 51s
    Overall bit rate                         : 4 865 Kbps
    Encoded date                             : UTC 2014-08-01 16:42:46
    Writing application                      : mkvmerge v6.7.0 ('Back to the Ground') 64bit built on Jan  8 2014 15:10:52
    Writing library                          : libebml v1.3.0 + libmatroska v1.4.1

    Video
    ID                                       : 1
    Format                                   : AVC
    Format/Info                              : Advanced Video Codec
    Format profile                           : High@L4.1
    Format settings, CABAC                   : Yes
    Format settings, ReFrames                : 5 frames
    Codec ID                                 : V_MPEG4/ISO/AVC
    Duration                                 : 41mn 51s
    Bit rate                                 : 4 096 Kbps
    Width                                    : 1 280 pixels
    Height                                   : 720 pixels
    Display aspect ratio                     : 16:9
    Frame rate                               : 23.976 fps
    Color space                              : YUV
    Chroma subsampling                       : 4:2:0
    Bit depth                                : 8 bits
    Scan type                                : Progressive
    Bits/(Pixel*Frame)                       : 0.185
    Stream size                              : 1.17 GiB (82%)
    Writing library                          : x264 core 130 r2273 b3065e6
    Encoding settings                        : cabac=1 / ref=5 / deblock=1:-1:-1 / analyse=0x3:0x113 / me=umh / subme=8 / psy=1 / psy_rd=1.00:0.15 / mixed_ref=1 / me_range=16 / chroma_me=1 / trellis=1 / 8x8dct=1 / cqm=0 / deadzone=21,11 / fast_pskip=1 / chroma_qp_offset=-3 / threads=12 / lookahead_threads=2 / sliced_threads=0 / nr=0 / decimate=1 / interlaced=0 / bluray_compat=0 / constrained_intra=0 / bframes=3 / b_pyramid=2 / b_adapt=2 / b_bias=0 / direct=3 / weightb=1 / open_gop=0 / weightp=2 / keyint=240 / keyint_min=24 / scenecut=40 / intra_refresh=0 / rc_lookahead=50 / rc=2pass / mbtree=1 / bitrate=4096 / ratetol=1.0 / qcomp=0.60 / qpmin=0 / qpmax=69 / qpstep=4 / cplxblur=20.0 / qblur=0.5 / vbv_maxrate=62500 / vbv_bufsize=78125 / nal_hrd=none / ip_ratio=1.40 / aq=1:1.00
    Language                                 : English
    Default                                  : Yes
    Forced                                   : No
    Color primaries                          : BT.709-5, BT.1361, IEC 61966-2-4, SMPTE RP177
    Transfer characteristics                 : BT.709-5, BT.1361
    Matrix coefficients                      : BT.709-5, BT.1361, IEC 61966-2-4 709, SMPTE RP177

    Audio #1
    ID                                       : 2
    Format                                   : AC-3
    Format/Info                              : Audio Coding 3
    Mode extension                           : CM (complete main)
    Codec ID                                 : A_AC3
    Duration                                 : 41mn 51s
    Bit rate mode                            : Constant
    Bit rate                                 : 384 Kbps
    Channel(s)                               : 6 channels
    Channel positions                        : Front: L C R, Side: L R, LFE
    Sampling rate                            : 48.0 KHz
    Bit depth                                : 16 bits
    Compression mode                         : Lossy
    Stream size                              : 115 MiB (8%)
    Language                                 : Russian
    Default                                  : Yes
    Forced                                   : No

    Audio #2
    ID                                       : 3
    Format                                   : AC-3
    Format/Info                              : Audio Coding 3
    Mode extension                           : CM (complete main)
    Codec ID                                 : A_AC3
    Duration                                 : 41mn 51s
    Bit rate mode                            : Constant
    Bit rate                                 : 384 Kbps
    Channel(s)                               : 6 channels
    Channel positions                        : Front: L C R, Side: L R, LFE
    Sampling rate                            : 48.0 KHz
    Bit depth                                : 16 bits
    Compression mode                         : Lossy
    Stream size                              : 115 MiB (8%)
    Language                                 : English
    Default                                  : No
    Forced                                   : No


    Скриншоты:
    скриншот   скриншот   скриншот   скриншот   скриншот  

    Раздача ведётся путём добавления новых серий. Добавлена 8 серия (19.09.2014).Просьба перекачать торрент файл.

    pb.wtf



  • Скачать Лотерея через торрент http://i67.fastpic.ru/big/2014/0802/f6/d80049614c2fb455a135f364d083e9f6.jpg Скачать фильм Лотерея через торрент бесплантно в хорошем качестве Описание: В 2025 году, мир переживает кризис рождаемости. Женщины не могут забеременеть, а человеческая раса находится на грани вымирания. ... 10 10 6
    Info! Золотая раздача, скачанное не засчитывается.
    Торрент: Зарегистрирован [2014-09-19 11:27] · скачан: 8 раз
    Статус: √ проверено
    Размер: 10.74 GB
    Как cкачать? Как скачать Лотерея через торрент | qTorrent

    % Раздел Тема Автор DL S | L
    Зарубежные сериалы [ 4.41 GB ] Лотерея / The Lottery / Сезон: 1 / Серии 1-8 из 10 [2014 HDTVRip MVO] [BaibaKo] GEKADOL Скачать
    1 | 0


    Последний раз редактировалось: GEKADOL (2014-09-19 11:26), всего редактировалось 7 раз(а)

    28-11-2019 20:33  

    Отключить всю рекламу на сайте

    22-08-2014 23:18 Лотерея Скачать торрент  

    неплохо вроде!)посмотрим что будет дальше!)pb.wtf



      Дорогой пользователь! Огромная просьба, поблагодарите релизера, оцените раздачу и оставьте свои комментарий, если Вы скачали Лотерея через торрент бесплатно! Внесите свою лепту в развитие PiratBit!
      Комментировать посты могут только пользователи прошедшие не сложную регистрацию
      Показать сообщения:    

      Лотерея через торрент
      Скачать бесплатно Лотерея
      Лотерея скачать торрент
      Лотерея смотреть онлайн
      Cкачать фильм Лотерея бесплатно
      Лотерея скачать торрент в хорошем качестве
      Лотерея смотреть онлайн бесплатно в хорошем качестве


      Вы не можете начинать темы
      Вы не можете отвечать на сообщения
      Вы не можете редактировать свои сообщения
      Вы не можете удалять свои сообщения
      Вы не можете голосовать в опросах
      Вы не можете прикреплять файлы к сообщениям
      Вы можете скачивать файлы