2 сезон

iTunes

1 сезон

1

iTunes

iTunes

iTunes

1 сезон

RePack

30

ИГРА 18+

pack

ВАЖНО

!!Акция!!

Alien_RageХит недели

RePack

MK11
pack

Забери бонус

RePack

jed

!!Акция!!

Alien_Rage

RePack

fifa19

RePack

Assassins Creed: Odyssey

RePack

NEED FOR SPEED™ PAYBACK

4 сезон

9 сезон

Бесстыжие 9 сезон

Все сериалы

все сериалы на PB.wtf

RePack

FAR CRY 5
  

S.O.S. Женщины в море / S.O.S.: Mulheres ao Mar (Крис Д’Амато / Cris D'amato) [2014, Бразилия, комедия, WEBRip, Любительский (двухголосый) pb.wtf

S.O.S. Женщины в море через торрент pb.wtf

Размер: 1.26 GB | Добавлен: 6 лет 2 мес. назад | Торрент скачан:203 раза
Скачать  

02-08-2014 01:14 S.O.S. Женщины в море Скачать торрент  

S.O.S. Женщины в море / S.O.S.: Mulheres ao Mar


  • Год выпуска: 2014
  • Страна: Бразилия
  • Жанр: комедия
  • Продолжительность: 01:34:55
  • Перевод: Любительский (двухголосый)(Alternative Production)

  • Режиссер: Крис Д’Амато / Cris D'amato
  • В ролях:

    Джованна Антонелли (Adriana), Фабиула Наскименту (Luiza), Thalita Carauta (Dialinda), Рейнальдо Джанеккини (André), Эммануэль Араужо (Beatriz), Марселло Айрольди (Eduardo), Тереса Амайо, Родриго Феррарини, Серджио Муниз, Carmine Signorelli

  • Описание:
    Адриана понимает, что их отношения с Эдуардо зашли в тупик и их брак едва ли можно спасти. И всё же девушка предпринимает последнюю попытку вернуть его: Адриана садится на тот же круизный лайнер, на котором Эдуардо путешествует вместе со своей новой подругой – звездой теленовелл. На судне девушку сопровождают её сестра Луиза и горничная Диалинда. Неожиданно женщины открывают для себя удивительные стороны жизни...
  • Рейтинг:



  • Качество: WEBRip
  • Формат: :AVI
  • Видео кодек: XviD
  • Аудио кодек: MP3
  • Видео: 720x400 (16:9), 1695 kbps, 23,976 fps, 0,245 bpp
  • Аудио: 2.0 / 48 kHz / 192 kbps /
  • Релиз от: GEKADOL

    Код:

    General
    Complete name                            : G:\S.O.S. Женщины в море.avi
    Format                                   : AVI
    Format/Info                              : Audio Video Interleave
    File size                                : 1.26 GiB
    Duration                                 : 1h 34mn
    Overall bit rate                         : 1 897 Kbps
    Writing library                          : VirtualDub build 32842/release

    Video
    ID                                       : 0
    Format                                   : MPEG-4 Visual
    Format profile                           : Advanced Simple@L5
    Format settings, BVOP                    : 2
    Format settings, QPel                    : No
    Format settings, GMC                     : No warppoints
    Format settings, Matrix                  : Default (H.263)
    Muxing mode                              : Packed bitstream
    Codec ID                                 : XVID
    Codec ID/Hint                            : XviD
    Duration                                 : 1h 34mn
    Bit rate                                 : 1 695 Kbps
    Width                                    : 720 pixels
    Height                                   : 400 pixels
    Display aspect ratio                     : 16:9
    Frame rate                               : 23.976 fps
    Color space                              : YUV
    Chroma subsampling                       : 4:2:0
    Bit depth                                : 8 bits
    Scan type                                : Progressive
    Compression mode                         : Lossy
    Bits/(Pixel*Frame)                       : 0.245
    Stream size                              : 1.12 GiB (89%)
    Writing library                          : XviD 64

    Audio
    ID                                       : 1
    Format                                   : MPEG Audio
    Format version                           : Version 1
    Format profile                           : Layer 3
    Mode                                     : Joint stereo
    Codec ID                                 : 55
    Codec ID/Hint                            : MP3
    Duration                                 : 1h 34mn
    Bit rate mode                            : Constant
    Bit rate                                 : 192 Kbps
    Channel(s)                               : 2 channels
    Sampling rate                            : 48.0 KHz
    Compression mode                         : Lossy
    Stream size                              : 130 MiB (10%)
    Alignment                                : Split accross interleaves
    Interleave, duration                     : 42 ms (1.00 video frame)
    Interleave, preload duration             : 500 ms


    Скриншоты:


    pb.wtf



  • Скачать S.O.S. Женщины в море через торрент http://i65.fastpic.ru/big/2014/0802/16/013e561c020e271bb9c70fdb44f8df16.jpg Скачать фильм S.O.S. Женщины в море через торрент бесплантно в хорошем качестве Описание: Адриана понимает, что их отношения с Эдуардо зашли в тупик и их брак едва ли можно спасти. И всё же девушка предпринимает ... 10 10 3
    Торрент: Зарегистрирован [2014-08-02 01:14] · скачан: 203 раз
    Статус: T временная
    Размер: 1.26 GB
    Как cкачать? Как скачать S.O.S. Женщины в море через торрент | qTorrent

    28-11-2019 20:33  

    Отключить всю рекламу на сайте

      Дорогой пользователь! Огромная просьба, поблагодарите релизера, оцените раздачу и оставьте свои комментарий, если Вы скачали S.O.S. Женщины в море через торрент бесплатно! Внесите свою лепту в развитие PiratBit!
      Комментировать посты могут только пользователи прошедшие не сложную регистрацию
      Показать сообщения:    

      S.O.S. Женщины в море через торрент
      Скачать бесплатно S.O.S. Женщины в море
      S.O.S. Женщины в море скачать торрент
      S.O.S. Женщины в море смотреть онлайн
      Cкачать фильм S.O.S. Женщины в море бесплатно
      S.O.S. Женщины в море скачать торрент в хорошем качестве
      S.O.S. Женщины в море смотреть онлайн бесплатно в хорошем качестве


      Вы не можете начинать темы
      Вы не можете отвечать на сообщения
      Вы не можете редактировать свои сообщения
      Вы не можете удалять свои сообщения
      Вы не можете голосовать в опросах
      Вы не можете прикреплять файлы к сообщениям
      Вы можете скачивать файлы