2 сезон

iTunes

MVO

1

2 сезон

iTunes

iTunes

1 сезон

RePack

30

Новинка

ВАЖНО

ИГРА 18+

pack

RePack

MK11
pack

Легкие деньги

RePack

jed

RePack

fifa19

RePack

RDR2

RePack

NEED FOR SPEED™ PAYBACK

4 сезон

9 сезон

Бесстыжие 9 сезон

Все сериалы

все сериалы на PB.wtf

RePack

FAR CRY 5

Anonymous, доброе утро, мы не успеваем собрать деньги на оплату серверов за декабрь и январь, помогите нам пожалуйста в это трудное время. В качестве благодарности мы отключим Вам всю рекламу на сайте (укажите свой ник в строку Ваше имя)!

×
  
Magnet ссылка

Двойник / The Double (Ричард Айоади / Richard Ayoade) [2013, Великобритания, триллер, драма, HDRip, MVO] [Лицензия] pb.wtf

Двойник через торрент pb.wtf

Размер: 1.46 GB | Добавлен: 6 лет 5 мес. назад | Торрент скачан:816 раз
Скачать  

02-08-2014 03:06 Двойник Скачать торрент  

Двойник / The Double


  • Год выпуска: 2013
  • Страна: Великобритания
  • Жанр: триллер, драма
  • Продолжительность: 01:32:44
  • Перевод: Профессиональный многоголосый закадровый) [Лицензия]

  • Режиссер: Ричард Айоади / Richard Ayoade
  • В ролях:

    Джесси Айзенберг (Simon / James), Миа Васиковска (Hannah), Уоллес Шоун (Mr. Papadopoulos), Ясмин Пейдж (Melanie Papadopoulos), Ноа Тейлор (Harris), Джеймс Фокс (The Colonel), Кэти Мориарти (Kiki), Филлис Соммервиль (Simon's Mother), Гэбриэлль Дауни (Strange Woman), Джон Коркс (Detective), Крэйг Робертс (Young Detective), Кобна Холдбрук-Смит (Guard / Doctor)

  • Описание:
    Саймон - скромный работяга. На работе его не замечают, а девушка мечты игнорирует. Кажется, что так будет продолжаться вечно, но однажды в конторе появляется Джеймс, внешне - двойник Саймона, но по характеру его полная противоположность - уверенный, харизматичный плейбой. К ужасу Саймона, Джеймс потихоньку начинает забирать его жизнь.
  • Рейтинг:



  • Качество: HDRip
  • Формат: :AVI
  • Видео кодек: XviD
  • Аудио кодек: AC3
  • Видео: 720x384 (1.875), 1791 kbps, 24 fps, 0,270 bpp
  • Аудио: 5.1 / 48 kHz / 448 kbps / 16 bit
  • Релиз от: GEKADOL

    Код:

    General
    Complete name                            : H:\ТОРРЕНТЫ\Dvoinik.2014.P.HDRip.1.46GB.avi
    Format                                   : AVI
    Format/Info                              : Audio Video Interleave
    File size                                : 1.46 GiB
    Duration                                 : 1h 32mn
    Overall bit rate                         : 2 249 Kbps
    Writing application                      : VirtualDubMod 1.5.10.2 (build 2540/release)
    Writing library                          : VirtualDubMod build 2540/release

    Video
    ID                                       : 0
    Format                                   : MPEG-4 Visual
    Format profile                           : Advanced Simple@L5
    Format settings, BVOP                    : 2
    Format settings, QPel                    : No
    Format settings, GMC                     : No warppoints
    Format settings, Matrix                  : Default (MPEG)
    Codec ID                                 : XVID
    Codec ID/Hint                            : XviD
    Duration                                 : 1h 32mn
    Bit rate                                 : 1 792 Kbps
    Width                                    : 720 pixels
    Height                                   : 384 pixels
    Display aspect ratio                     : 1.875
    Frame rate                               : 24.000 fps
    Color space                              : YUV
    Chroma subsampling                       : 4:2:0
    Bit depth                                : 8 bits
    Scan type                                : Progressive
    Compression mode                         : Lossy
    Bits/(Pixel*Frame)                       : 0.270
    Stream size                              : 1.16 GiB (80%)
    Writing library                          : XviD 1.2.1 (UTC 2008-12-04)

    Audio
    ID                                       : 1
    Format                                   : AC-3
    Format/Info                              : Audio Coding 3
    Mode extension                           : CM (complete main)
    Codec ID                                 : 2000
    Duration                                 : 1h 32mn
    Bit rate mode                            : Constant
    Bit rate                                 : 448 Kbps
    Channel(s)                               : 6 channels
    Channel positions                        : Front: L C R, Side: L R, LFE
    Sampling rate                            : 48.0 KHz
    Bit depth                                : 16 bits
    Compression mode                         : Lossy
    Stream size                              : 297 MiB (20%)
    Alignment                                : Split accross interleaves
    Interleave, duration                     : 42 ms (1.00 video frame)
    Interleave, preload duration             : 500 ms


    Скриншоты:


    pb.wtf



  • Скачать Двойник через торрент https://pic.kartinco.top/new/img/2014-08/02/76ic38e0q7bpk25h0hw4ikfcd.jpg Скачать фильм Двойник через торрент бесплантно в хорошем качестве Описание: Саймон - скромный работяга. На работе его не замечают, а девушка мечты игнорирует. Кажется, что так будет продолжаться вечно, но ... 9.8 10 16
    Торрент: Зарегистрирован [2014-08-02 03:06] · скачан: 816 раз
    Статус: √ проверено
    Размер: 1.46 GB
    Как cкачать? Как скачать Двойник через торрент | UTorrent

    % Раздел Тема Автор DL S | L
    T Фильмы (WEB-DL 720p, 1080p) [ 3.16 GB ] Двойник / The Double [2013 WEB-DL 720p][Официальная озвучка] Anonymous Скачать
    1 | 0
    Фильмы [HD 720p, 1080p] (Хороший звук DUB, MVO) [ 5.87 GB ] Двойник / The Double [2013 BDRip 1080p] DUB от R.G. HD-Films Ворон Скачать
    1 | 0
    T Фильмы 2013 [DVDrip, WEB-DLRip, HDrip] [ 1.36 GB ] Двойник / The Double [2013 WEB-DLRip][Официальная озвучка] Anonymous Скачать
    1 | 0
    Фильмы [HD 720p, 1080p] (Хороший звук DUB, MVO) [ 12.16 GB ] Двойник дьявола / The Devil's Double [2011 Нидерланды Бельгия биография BDRip 1080p] Dub Sub Rus + Original Eng Ворон Скачать
    1 | 0
    Фильмы (Blu-ray, BD-Remux, HDDVD) [ 33.86 GB ] Двойник дьявола / The Devil's Double [2011 Нидерланды Бельгия. биография. BDRemux 1080p] и VO byblackmexx Скачать
    1 | 0
    Фильмы 2011 [ 1.37 GB ] Двойник дьявола / The Devil's Double [2011 биография HDRip лицензия] SD Скачать
    1 | 0
    Фильмы 2011 [ 2.52 GB ] Двойник дьявола / The Devil's Double [2011 Нидерланды Бельгия биография BDRip] DUB+VO+Original+Sub -=Cherry=- Скачать
    1 | 0

    28-11-2019 20:33  

    Отключить всю рекламу на сайте

    02-08-2014 04:08 Двойник Скачать торрент  

    Описание чем то похоже на одноименное произведение Достоевского, стоит посмотреть?pb.wtf



    02-08-2014 16:20 Двойник Скачать торрент  

    бред полнейший!pb.wtf



    03-08-2014 05:12 Двойник Скачать торрент  

    Бредятина..откуда такой высокий рейтинг,не понимаюpb.wtf



      Дорогой пользователь! Огромная просьба, поблагодарите релизера, оцените раздачу и оставьте свои комментарий, если Вы скачали Двойник через торрент бесплатно! Внесите свою лепту в развитие PiratBit!
      Комментировать посты могут только пользователи прошедшие не сложную регистрацию
      Показать сообщения:    

      Двойник через торрент
      Скачать бесплатно Двойник
      Двойник скачать торрент
      Двойник смотреть онлайн
      Cкачать фильм Двойник бесплатно
      Двойник скачать торрент в хорошем качестве
      Двойник смотреть онлайн бесплатно в хорошем качестве


      Вы не можете начинать темы
      Вы не можете отвечать на сообщения
      Вы не можете редактировать свои сообщения
      Вы не можете удалять свои сообщения
      Вы не можете голосовать в опросах
      Вы не можете прикреплять файлы к сообщениям
      Вы можете скачивать файлы