2 сезон

iTunes

1 сезон

1

iTunes

iTunes

iTunes

1 сезон

RePack

30

ИГРА 18+

pack

ВАЖНО

!!Акция!!

Alien_RageХит недели

RePack

MK11
pack

Забери бонус

RePack

jed

!!Акция!!

Alien_Rage

RePack

fifa19

RePack

Assassins Creed: Odyssey

RePack

NEED FOR SPEED™ PAYBACK

4 сезон

9 сезон

Бесстыжие 9 сезон

Все сериалы

все сериалы на PB.wtf

RePack

FAR CRY 5
  

17+(Семнадцать плюс) / Серии 1-20 из 20 (Александр Имакин, Сергей Лазоренко) [2014, Украина, комедия, WEB-DLRip) pb.wtf

17+ через торрент pb.wtf

Размер: 5.87 GB | Добавлен: 6 лет 2 мес. назад | Торрент скачан:170 раз
Скачать  

02-08-2014 04:23 17+ Скачать торрент  

17+(Семнадцать плюс)


  • Год выпуска: 2014
  • Страна: Украина
  • Жанр: комедия
  • Продолжительность: 00:23:59(Серия)
  • Перевод: Не требуется

  • Режиссер: Александр Имакин, Сергей Лазоренко
  • В ролях:

    Глеб Мелешенко, Дмитрий Попов, Дмитрий Сидоров, Елена Оларь, Инна Островская, Екатерина Горбань, Максим Панченко, Юлия Дубовик, Сергей Лаврик, Радослава Богуславская, Олег Власов, Владимир Чмутов

  • Описание:
    Драйвовый скетчком о тех и для тех, чей главный «+» - возраст. В героях сериала зрители легко смогут узнать своих друзей или знакомых. Здесь есть незадачливые активистки женского движения "Нефем", вечно попадающие в неприятные ситуации. Менее сознательные, но не менее молодые мамашки, у которых свои проблемы – как при наличии маленьких детей не выпадать из светской, тусовочной жизни. Их девиз: "У ТЕБЯ ребенок и ТЫ хозяйка положения". Соседи по общаге, которые терпеть не могут друг друга в реальной жизни, зато виртуально влюблены уже не первый день. "Гуру" интернета Гриша Настоящий, проводящий на фоне ковра обучающие вебинары для всех "чик" и "тел". А еще хипстеры, футболисты-раздолбаи, татуировщики и много других смешных персонажей.
  • Рейтинг:



  • Качество: WEB-DLRip
  • Формат: :AVI
  • Видео кодек: XviD
  • Аудио кодек: MP3
  • Видео: 720x400 (16:9), 1612 kbps, 25 fps, 0,224 bpp
  • Аудио: 2.0 / 44 kHz / 128 kbps
  • Релиз от: GEKADOL

    Код:

    General
    Complete name                            : G:\17+ (2014) WEB-DLRip 400p\17+.(20.seriya).2014.XviD.WEB-DLRip.400p.by.simka.avi
    Format                                   : AVI
    Format/Info                              : Audio Video Interleave
    File size                                : 300 MiB
    Duration                                 : 23mn 59s
    Overall bit rate                         : 1 750 Kbps
    Writing application                      : VirtualDubMod 1.5.10.3 | www.virtualdub-fr.org || (build 2550/release)
    Writing library                          : VirtualDubMod build 2550/release

    Video
    ID                                       : 0
    Format                                   : MPEG-4 Visual
    Format profile                           : Advanced Simple@L5
    Format settings, BVOP                    : 1
    Format settings, QPel                    : No
    Format settings, GMC                     : No warppoints
    Format settings, Matrix                  : Default (H.263)
    Codec ID                                 : XVID
    Codec ID/Hint                            : XviD
    Duration                                 : 23mn 59s
    Bit rate                                 : 1 613 Kbps
    Width                                    : 720 pixels
    Height                                   : 400 pixels
    Display aspect ratio                     : 16:9
    Frame rate                               : 25.000 fps
    Color space                              : YUV
    Chroma subsampling                       : 4:2:0
    Bit depth                                : 8 bits
    Scan type                                : Progressive
    Compression mode                         : Lossy
    Bits/(Pixel*Frame)                       : 0.224
    Stream size                              : 277 MiB (92%)
    Writing library                          : XviD 1.2.1 (UTC 2008-12-04)

    Audio
    ID                                       : 1
    Format                                   : MPEG Audio
    Format version                           : Version 1
    Format profile                           : Layer 3
    Mode                                     : Joint stereo
    Codec ID                                 : 55
    Codec ID/Hint                            : MP3
    Duration                                 : 23mn 59s
    Bit rate mode                            : Constant
    Bit rate                                 : 128 Kbps
    Channel(s)                               : 2 channels
    Sampling rate                            : 44.1 KHz
    Compression mode                         : Lossy
    Stream size                              : 22.0 MiB (7%)
    Alignment                                : Split accross interleaves
    Interleave, duration                     : 40 ms (1.00 video frame)
    Interleave, preload duration             : 500 ms
    Writing library                          : LAME3.99r
    Encoding settings                        : -m j -V 4 -q 2 -lowpass 17 -b 128


    Скриншоты:


    pb.wtf



  • Скачать 17+ через торрент http://i68.fastpic.ru/big/2014/0802/35/d5a16962ce9e7c39d203dd075eca1f35.jpg Скачать фильм 17+через торрент бесплантно в хорошем качестве Описание: Драйвовый скетчком о тех и для тех, чей главный «+» - возраст. В героях сериала зрители легко смогут узнать своих друзей или ... 8.9 10 8
    Info! Золотая раздача, скачанное не засчитывается.
    Торрент: Зарегистрирован [2014-08-02 04:23] · скачан: 170 раз
    Статус: √ проверено
    Размер: 5.87 GB
    Как cкачать? Как скачать 17+ через торрент | qTorrent

    % Раздел Тема Автор DL S | L
    Архиваторы и файловые менеджеры [ 2 MB ] RAR Recovery Toolbox 1.1.8.17 Retail ZipRecoveryToolbox v1.0.11.43 Retail Anonymous Скачать
    1 | 1
    Разное (Программы для работы с мультимедиа и 3D) [ 2 MB ] Fraps 3.2.3 Build 11796 [2010 EN] Phizo Скачать
    1 | 0
    Теория большого взрыва [ 17.88 GB ] Теория Большого Взрыва / The Big Bang Theory [2007 HDTV] nitles666 Скачать
    4 | 0
    Наши сериалы [ 51.15 GB ] Моя прекрасная няня / Moya prekrasnaya nyanya [2004-2008 TVRip] DragonHard Скачать
    1 | 0
    Софт для игр на PC [ 2 MB ] Artmoney 7.32 Pro Rus Babiyi Скачать
    1 | 0
    ГИС (Геоинформационные системы) [ 11 MB ] Google Earth Plus v5.0.11733.9347 Final Anonymous Скачать
    1 | 0
    Экономические стратегии [ 4.34 GB ] Anno 1701 [лицензияRU Стратегия экономика] SibFrost Скачать
    1 | 0

    28-11-2019 20:33  

    Отключить всю рекламу на сайте

      Дорогой пользователь! Огромная просьба, поблагодарите релизера, оцените раздачу и оставьте свои комментарий, если Вы скачали 17+ через торрент бесплатно! Внесите свою лепту в развитие PiratBit!
      Комментировать посты могут только пользователи прошедшие не сложную регистрацию
      Показать сообщения:    

      17+ через торрент
      Скачать бесплатно 17+
      17+ скачать торрент
      17+ смотреть онлайн
      Cкачать фильм 17+ бесплатно
      17+ скачать торрент в хорошем качестве
      17+ смотреть онлайн бесплатно в хорошем качестве


      Вы не можете начинать темы
      Вы не можете отвечать на сообщения
      Вы не можете редактировать свои сообщения
      Вы не можете удалять свои сообщения
      Вы не можете голосовать в опросах
      Вы не можете прикреплять файлы к сообщениям
      Вы можете скачивать файлы