2 сезон

iTunes

1 сезон

1

iTunes

iTunes

iTunes

1 сезон

RePack

30

ИГРА 18+

pack

ВАЖНО

!!Акция!!

Alien_RageХит недели

RePack

MK11
pack

Забери бонус

RePack

jed

!!Акция!!

Alien_Rage

RePack

fifa19

RePack

Assassins Creed: Odyssey

RePack

NEED FOR SPEED™ PAYBACK

4 сезон

9 сезон

Бесстыжие 9 сезон

Все сериалы

все сериалы на PB.wtf

RePack

FAR CRY 5
  

Первый мститель: Другая война / Captain America: The Winter Soldier (Энтони Руссо, Джо Руссо) [2014 г., фантастика, боевик, приключения, BDRip 1080p, Дубляж, Лицензия] от R.G.PiratFilms pb.wtf

Первый мститель: Другая война через торрент pb.wtf

Размер: 11.67 GB | Добавлен: 6 лет 2 мес. назад | Торрент скачан:1075 раз
Скачать  

02-08-2014 09:00 Первый мститель: Другая война Скачать торрент  

Первый мститель: Другая войнаГод выпуска: 2014
Страна: США / Marvel Entertainment, Marvel Studios Inc.
Жанр: фантастика, боевик, приключения
Продолжительность: 02:15:54
Перевод: Дубляж, Лицензия
Тип релиза: Лицензия
Субтитры: Русские, английские

Режиссер: Энтони Руссо, Джо Руссо
Продюссер: Кевин Файги, Виктория Алонсо, Митчелл Белл
Сценарий: Кристофер Маркус, Стивен МакФили, Эд Брубэйкер

Бюджет: $170 000 000
Премьера в мире: 13 марта 2014

IMDB 8.20 (163 709)


В ролях: Крис Эванс, Скарлетт Йоханссон, Энтони Маки, Себастьян Стэн, Сэмюэл Л. Джексон, Роберт Редфорд, Фрэнк Грилло, Коби Смолдерс, Эмили ВанКэмп, Максимилиано Эрнандес

Описание: После беспрецедентных событий, впервые собравших вместе команду Мстителей, Стив Роджерс, известный также как Капитан Америка, оседает в Вашингтоне и пытается приспособиться к жизни в современном мире. Но покой этому герою только снится — пытаясь помочь коллеге из агентства Щ. И. Т, Стив оказывается в центре событий, грозящих катастрофой мирового масштаба. Для того, чтобы разоблачить злодейский заговор, Капитан Америка объединяется с Черной вдовой. К ним также присоединяется новый соратник, известный как Сокол, однако никто из них даже не подозревает, на что способен новый враг.

Качество: BDRip 1080p
Формат: MKV
Видео кодек: AVC
Аудио кодек: AC3, DTS
Видео: MPEG-4 AVC, 10.1 Мбит/с, 1920х800(2.40:1), 23.976 кадр/с
Аудио#1: Русский (AC3, 640 Кбит/с, 6 ch, 48.0 КГц, 16 бит)
Аудио#2: Английский (DTS, 1509 Кбит/с, 6 ch, 48.0 КГц, 24 бит)


Rip by -=Pavlin=-
скриншот  скриншот  скриншот  





Код:

x264 [info]: frame I:1658  Avg QP:14.36  size:193589
x264 [info]: frame P:59651 Avg QP:17.22  size: 73782
x264 [info]: frame B:134195 Avg QP:18.16  size: 41477
x264 [info]: consecutive B-frames:  9.6%  9.3% 12.8% 14.3% 14.5% 33.6%  3.8%  0.7%  1.3%

Уникальный идентификатор : 222840049633344129402644267902918966305 (0xA7A56EB45F40AFE4A9490580CF53BC21)
Полное имя : E:\Captain.America.The.Winter.Soldier.2014.BDRip.1080p.by.-=Pavlin=- (1).mkv
Формат : Matroska
Версия формата : Version 4 / Version 2
Размер файла : 11,7 Гбайт
Продолжительность : 2 ч. 15 м.
Общий поток : 12,3 Мбит/сек
Название фильма : Captain.America.The.Winter.Soldier.2014.BDRip.1080p.by.-=Pavlin=-
Дата кодирования : UTC 2014-08-02 07:09:57
Программа кодирования : mkvmerge v6.5.0 ('Isn't she lovely') built on Oct 20 2013 12:50:05
Библиотека кодирования : libebml v1.3.0 + libmatroska v1.4.1

Видео
Идентификатор : 1
Формат : AVC
Формат/Информация : Advanced Video Codec
Профиль формата : High@L4.1
Параметр CABAC формата : Да
Параметр ReFrames формата : 4 кадра
Идентификатор кодека : V_MPEG4/ISO/AVC
Продолжительность : 2 ч. 15 м.
Битрейт : 10,1 Мбит/сек
Ширина : 1920 пикселей
Высота : 800 пикселей
Соотношение сторон : 2,40:1
Режим частоты кадров : Постоянный
Частота кадров : 23,976 кадра/сек
Цветовое пространство : YUV
Субдискретизация насыщенности : 4:2:0
Битовая глубина : 8 бит
Тип развёртки : Прогрессивная
Бит/(Пиксели*Кадры) : 0.274
Размер потока : 9,39 Гбайт (81%)
Библиотека кодирования : x264 core 142 r2431 ac76440
Настройки программы : cabac=1 / ref=4 / deblock=1:-3:-3 / analyse=0x3:0x113 / me=umh / subme=9 / psy=1 / psy_rd=1.02:0.05 / mixed_ref=1 / me_range=32 / chroma_me=1 / trellis=2 / 8x8dct=1 / cqm=0 / deadzone=21,11 / fast_pskip=0 / chroma_qp_offset=-5 / threads=6 / lookahead_threads=1 / sliced_threads=0 / nr=0 / decimate=1 / interlaced=0 / bluray_compat=0 / constrained_intra=0 / bframes=8 / b_pyramid=2 / b_adapt=2 / b_bias=0 / direct=3 / weightb=1 / open_gop=0 / weightp=2 / keyint=230 / keyint_min=23 / scenecut=40 / intra_refresh=0 / rc_lookahead=60 / rc=2pass / mbtree=1 / bitrate=10100 / ratetol=1.0 / qcomp=0.70 / qpmin=0 / qpmax=69 / qpstep=4 / cplxblur=20.0 / qblur=0.5 / vbv_maxrate=62500 / vbv_bufsize=50000 / nal_hrd=none / filler=0 / ip_ratio=1.40 / aq=1:0.80
Язык : English
Default : Да
Forced : Нет

Аудио #1
Идентификатор : 2
Формат : AC-3
Формат/Информация : Audio Coding 3
Расширение режима : CM (complete main)
Параметр Endianness формата : Big
Идентификатор кодека : A_AC3
Продолжительность : 2 ч. 15 м.
Вид битрейта : Постоянный
Битрейт : 640 Кбит/сек
Каналы : 6 каналов
Расположение каналов : Front: L C R, Side: L R, LFE
Частота : 48,0 КГц
Битовая глубина : 16 бит
Метод сжатия : С потерями
Размер потока : 622 Мбайт (5%)
Заголовок : Дубляж
Язык : Russian
Default : Да
Forced : Нет

Аудио #2
Идентификатор : 3
Формат : DTS
Формат/Информация : Digital Theater Systems
Режим : 16
Параметр Endianness формата : Big
Идентификатор кодека : A_DTS
Продолжительность : 2 ч. 15 м.
Вид битрейта : Постоянный
Битрейт : 1509 Кбит/сек
Каналы : 6 каналов
Расположение каналов : Front: L C R, Side: L R, LFE
Частота : 48,0 КГц
Битовая глубина : 24 бит
Метод сжатия : С потерями
Размер потока : 1,43 Гбайт (12%)
Язык : English
Default : Нет
Forced : Нет

Текст #1
Идентификатор : 4
Формат : PGS
Режим смешивания : zlib
Идентификатор кодека : S_HDMV/PGS
Идентификатор кодека/Информация : The same subtitle format used on BDs/HD-DVDs
Язык : Russian
Default : Да
Forced : Нет

Текст #2
Идентификатор : 5
Формат : PGS
Режим смешивания : zlib
Идентификатор кодека : S_HDMV/PGS
Идентификатор кодека/Информация : The same subtitle format used on BDs/HD-DVDs
Язык : Russian
Default : Нет
Forced : Нет

Текст #3
Идентификатор : 6
Формат : PGS
Режим смешивания : zlib
Идентификатор кодека : S_HDMV/PGS
Идентификатор кодека/Информация : The same subtitle format used on BDs/HD-DVDs
Язык : Russian
Default : Нет
Forced : Нет

Текст #4
Идентификатор : 7
Формат : PGS
Режим смешивания : zlib
Идентификатор кодека : S_HDMV/PGS
Идентификатор кодека/Информация : The same subtitle format used on BDs/HD-DVDs
Язык : English
Default : Нет
Forced : Нет

Текст #5
Идентификатор : 8
Формат : PGS
Режим смешивания : zlib
Идентификатор кодека : S_HDMV/PGS
Идентификатор кодека/Информация : The same subtitle format used on BDs/HD-DVDs
Язык : English
Default : Нет
Forced : Нет


Первый мститель: Другая война скачать торрент


© оформление by -=Pavlin=-pb.wtf



Скачать Первый мститель: Другая война через торрент http://pic.kartinco.top/new/img/2014-08/03/ou4jhkv1gu8qfjy5jy5rw3fua.png Скачать фильм Первый мститель: Другая война через торрент бесплантно в хорошем качестве Описание: После беспрецедентных событий, впервые собравших вместе команду Мстителей, Стив Роджерс, известный также как Капитан Америка, ... 9.7 10 38
Info! Золотая раздача, скачанное не засчитывается.
Торрент: Зарегистрирован [2014-08-02 09:00] · скачан: 1 075 раз
Статус: √ проверено
Размер: 11.67 GB
Как cкачать? Как скачать Первый мститель: Другая война через торрент | qTorrent

% Раздел Тема Автор DL S | L
Фильмы [HD 720p, 1080p] (Хороший звук DUB, MVO) [ 6.3 GB ] Первый мститель: Другая война / Captain America: The Winter Soldier [2014 BDRip 720p] + Original + Subs от R.G. PiratFilms Messa-fan Скачать
1 | 1

28-11-2019 20:33  

Отключить всю рекламу на сайте

    Дорогой пользователь! Огромная просьба, поблагодарите релизера, оцените раздачу и оставьте свои комментарий, если Вы скачали Первый мститель: Другая война через торрент бесплатно! Внесите свою лепту в развитие PiratBit!
    Комментировать посты могут только пользователи прошедшие не сложную регистрацию
    Показать сообщения:    

    Первый мститель: Другая война через торрент
    Скачать бесплатно Первый мститель: Другая война
    Первый мститель: Другая война скачать торрент
    Первый мститель: Другая война смотреть онлайн
    Cкачать фильм Первый мститель: Другая война бесплатно
    Первый мститель: Другая война скачать торрент в хорошем качестве
    Первый мститель: Другая война смотреть онлайн бесплатно в хорошем качестве


    Вы не можете начинать темы
    Вы не можете отвечать на сообщения
    Вы не можете редактировать свои сообщения
    Вы не можете удалять свои сообщения
    Вы не можете голосовать в опросах
    Вы не можете прикреплять файлы к сообщениям
    Вы можете скачивать файлы