Ссылка на приватное зеркало нашего сайта всего за 1$. Внимание количество ограничено!!!

2 сезон

iTunes

1 сезон

1

iTunes

iTunes

iTunes

1 сезон

RePack

30

ИГРА 18+

pack

ВАЖНО

!!Акция!!

Alien_RageХит недели

RePack

MK11
pack

Забери бонус

RePack

jed

!!Акция!!

Alien_Rage

RePack

fifa19

RePack

Assassins Creed: Odyssey

RePack

NEED FOR SPEED™ PAYBACK

4 сезон

9 сезон

Бесстыжие 9 сезон

Все сериалы

все сериалы на PB.wtf

RePack

FAR CRY 5
  

Двойник / The Double (Ричард Айоади ) [2013, триллер, BDRip 1080p] DUB Лицензия от R.G. HD-Films pb.wtf

Двойник через торрент pb.wtf

Размер: 5.87 GB | Добавлен: 6 лет 2 мес. назад | Торрент скачан:263 раза
Скачать  

02-08-2014 10:14 Двойник Скачать торрент  

Двойник / The Double


Год выпуска: 2013
Страна: Великобритания
Жанр:триллер, драма
Продолжительность:01:32:44
Перевод:Дубляж - [Лицензия]
Режиссер:Ричард Айоади / Richard Ayoade

  • В ролях:

    Джесси Айзенберг (Simon / James), Миа Васиковска (Hannah), Уоллес Шоун (Mr. Papadopoulos), Ясмин Пейдж (Melanie Papadopoulos), Ноа Тейлор (Harris), Джеймс Фокс (The Colonel), Кэти Мориарти (Kiki), Филлис Соммервиль (Simon's Mother), Гэбриэлль Дауни (Strange Woman), Джон Коркс (Detective), Крэйг Робертс (Young Detective), Кобна Холдбрук-Смит (Guard / Doctor)

  • Описание:
    Саймон - скромный работяга. На работе его не замечают, а девушка мечты игнорирует. Кажется, что так будет продолжаться вечно, но однажды в конторе появляется Джеймс, внешне - двойник Саймона, но по характеру его полная противоположность - уверенный, харизматичный плейбой. К ужасу Саймона, Джеймс потихоньку начинает забирать его жизнь.

  • Мировая премьера:7 сентября 2013


      Качество: BDRip 1080p
      Формат:MKV
      Видео кодек: AVC
      Аудио кодек:AC3
      Видео: 1920x1040 (16:9), 8609 kbps, 24 fps
      Аудио: 5.1/ 48 kHz/ 448 kbps/ AC3
      Навигация по главам: есть


    Код:

    General
    Unique ID                                : 198332905553441936286804221182250942016 (0x953587368F5DE29AB0D8D4723CA17E40)
    Complete name                            : D:\Торенты\The.Double.2013..1080p.Release for Piratbit.net_R.G. HD-Films.mkv
    Format                                   : Matroska
    Format version                           : Version 4 / Version 2
    File size                                : 5.87 GiB
    Duration                                 : 1h 32mn
    Overall bit rate                         : 9 053 Kbps
    Movie name                               : Release for Piratbit.net_R.G. HD-Films
    Encoded date                             : UTC 2014-08-02 09:41:01
    Writing application                      : mkvmerge v6.7.0 ('Back to the Ground') 64bit built on Jan  8 2014 15:10:52
    Writing library                          : libebml v1.3.0 + libmatroska v1.4.1
    Attachment                               : Yes

    Video
    ID                                       : 1
    Format                                   : AVC
    Format/Info                              : Advanced Video Codec
    Format profile                           : High@L4.1
    Format settings, CABAC                   : Yes
    Format settings, ReFrames                : 4 frames
    Codec ID                                 : V_MPEG4/ISO/AVC
    Duration                                 : 1h 32mn
    Bit rate                                 : 8 609 Kbps
    Width                                    : 1 920 pixels
    Height                                   : 1 040 pixels
    Display aspect ratio                     : 16:9
    Frame rate                               : 24.000 fps
    Color space                              : YUV
    Chroma subsampling                       : 4:2:0
    Bit depth                                : 8 bits
    Scan type                                : Progressive
    Bits/(Pixel*Frame)                       : 0.180
    Stream size                              : 5.46 GiB (93%)
    Title                                    : Release for Piratbit.net_R.G. HD-Films
    Writing library                          : x264 core 142 r2431 ac76440
    Encoding settings                        : cabac=1 / ref=4 / deblock=1:0:0 / analyse=0x3:0x133 / me=umh / subme=7 / psy=1 / psy_rd=1.00:0.00 / mixed_ref=1 / me_range=16 / chroma_me=1 / trellis=1 / 8x8dct=1 / cqm=0 / deadzone=21,11 / fast_pskip=0 / chroma_qp_offset=-2 / threads=18 / lookahead_threads=3 / sliced_threads=0 / nr=0 / decimate=1 / interlaced=0 / bluray_compat=0 / constrained_intra=0 / bframes=3 / b_pyramid=2 / b_adapt=1 / b_bias=0 / direct=1 / weightb=1 / open_gop=0 / weightp=2 / keyint=250 / keyint_min=23 / scenecut=40 / intra_refresh=0 / rc_lookahead=40 / rc=2pass / mbtree=1 / bitrate=8609 / ratetol=1.0 / qcomp=0.60 / qpmin=0 / qpmax=69 / qpstep=4 / cplxblur=20.0 / qblur=0.5 / ip_ratio=1.40 / aq=1:1.00
    Language                                 : Russian
    Default                                  : Yes
    Forced                                   : Yes

    Audio
    ID                                       : 2
    Format                                   : AC-3
    Format/Info                              : Audio Coding 3
    Mode extension                           : CM (complete main)
    Codec ID                                 : A_AC3
    Duration                                 : 1h 32mn
    Bit rate mode                            : Constant
    Bit rate                                 : 448 Kbps
    Channel(s)                               : 6 channels
    Channel positions                        : Front: L C R, Side: L R, LFE
    Sampling rate                            : 48.0 KHz
    Bit depth                                : 16 bits
    Compression mode                         : Lossy
    Stream size                              : 297 MiB (5%)
    Default                                  : Yes
    Forced                                   : No

    Menu
    00:00:00.000                             : en:00:00:00.000
    00:07:27.833                             : en:00:07:27.833
    00:13:05.042                             : en:00:13:05.042
    00:20:27.333                             : en:00:20:27.333
    00:25:23.292                             : en:00:25:23.292
    00:32:16.875                             : en:00:32:16.875
    00:43:08.708                             : en:00:43:08.708
    00:52:58.625                             : en:00:52:58.625
    01:02:09.458                             : en:01:02:09.458
    01:11:15.375                             : en:01:11:15.375
    01:19:18.167                             : en:01:19:18.167
    01:25:58.583                             : en:01:25:58.583

    Скриншоты:

    Каталог Новинок (Фильмы-трейлеры, Игры, Сериалы, Мультфильмы)

    Релиз подготовлен специально для Piratbit.net. by Raven
    pb.wtf



  • Скачать Двойник через торрент http://pic.kartinco.top/new/img/2014-08/02/5fj4xrgqndxzi1i1drfwco3qh.png Скачать фильм Двойник через торрент бесплантно в хорошем качестве Описание:Саймон - скромный работяга. На работе его не замечают, а девушка мечты игнорирует. Кажется, что так будет продолжаться вечно, но ... 10 10 8
    Торрент: Зарегистрирован [2014-08-02 10:14] · скачан: 263 раз
    Статус: √ проверено
    Размер: 5.87 GB
    Как cкачать? Как скачать Двойник через торрент | qTorrent

    28-11-2019 20:33  

    Отключить всю рекламу на сайте

      Дорогой пользователь! Огромная просьба, поблагодарите релизера, оцените раздачу и оставьте свои комментарий, если Вы скачали Двойник через торрент бесплатно! Внесите свою лепту в развитие PiratBit!
      Комментировать посты могут только пользователи прошедшие не сложную регистрацию
      Показать сообщения:    

      Двойник через торрент
      Скачать бесплатно Двойник
      Двойник скачать торрент
      Двойник смотреть онлайн
      Cкачать фильм Двойник бесплатно
      Двойник скачать торрент в хорошем качестве
      Двойник смотреть онлайн бесплатно в хорошем качестве


      Вы не можете начинать темы
      Вы не можете отвечать на сообщения
      Вы не можете редактировать свои сообщения
      Вы не можете удалять свои сообщения
      Вы не можете голосовать в опросах
      Вы не можете прикреплять файлы к сообщениям
      Вы можете скачивать файлы