2 сезон

iTunes

MVO

1

2 сезон

iTunes

iTunes

1 сезон

RePack

30

Новинка

ВАЖНО

ИГРА 18+

pack

RePack

MK11
pack

Легкие деньги

RePack

jed

RePack

fifa19

RePack

RDR2

RePack

NEED FOR SPEED™ PAYBACK

4 сезон

9 сезон

Бесстыжие 9 сезон

Все сериалы

все сериалы на PB.wtf

RePack

FAR CRY 5

Anonymous, доброе утро, мы не успеваем собрать деньги на оплату серверов за декабрь и январь, помогите нам пожалуйста в это трудное время. В качестве благодарности мы отключим Вам всю рекламу на сайте (укажите свой ник в строку Ваше имя)!

×
  
Magnet ссылка

Голодные игры: И вспыхнет пламя / The Hunger Games: Catching Fire (Френсис Лоуренс / Francis Lawrence) [2013 г.,фантастика, боевик, триллер, приключения, BDRip 720p] 60 fps pb.wtf

Голодные игры: И вспыхнет пламя через торрент pb.wtf

Размер: 7.81 GB | Добавлен: 6 лет 5 мес. назад | Торрент скачан:291 раз
Скачать  

02-08-2014 15:39 Голодные игры: И вспыхнет пламя Скачать торрент  

Голодные игры: И вспыхнет пламя / The Hunger Games: Catching Fire «Помни, кто твой настоящий враг»
Год выпуска: 2013
Страна: США / Color Force
Жанр: фантастика, боевик, триллер, приключения
Продолжительность: 02:26:14

  • Перевод: Профессиональный (Дубляж);
  • Русские субтитры: есть
  • Оригинальная аудиодорожка: Английская

Режиссер: Френсис Лоуренс / Francis Lawrence
В ролях: Дженнифер Лоуренс, Джош Хатчерсон, Сэм Клафлин, Джена Мэлоун, Вуди Харрельсон, Элизабет Бэнкс, Лиам Хемсворт, Дональд Сазерленд, Филип Сеймур Хоффман, Стэнли Туччи...
Описание: Сумев выжить на безжалостных Голодных играх, Китнисс Эвердин и Пит Мелларк возвращаются домой. Но теперь они в еще большей опасности, так как своим отказом играть по правилам на Арене бросили вызов Капитолию. По традиции следующие, юбилейные, Голодные игры должны стать особенными, и в этот раз в них участвуют только победители прошлых лет. Китнисс и Пит вынуждены вновь выйти на Арену, где будут соперничать с сильнейшими. Правила игры меняются. Арена еще опасней, масштаб еще больше, ставки еще выше!

    Тип релиза: BDRip 720p
  • Контейнер: MKV
  • Видео кодек: H.264 | Аудио кодек: АС-3
  • Видео: 1280x720 at 59.940 fps, ~6200 Kbps avg
  • Аудио 1: Russian: 48 kHz, AC3, 3/2 (L,C,R,l,r) + LFE ch, ~640.00 kbps avg |Дубляж|
  • Аудио 2: English: 48 kHz, AC3, 3/2 (L,C,R,l,r) + LFE ch, ~640.00 kbps avg
  • Субтитры: Russian, English


Oбщее
Полное имя : D:\torrent\tor\The Hunger Games. Catching Fire BDRip720p 60 FPS.mkv
Формат : Matroska
Версия формата : Version 4 / Version 2
Размер файла : 7,81 Гбайт
Продолжительность : 2 ч. 26 м.
Общий поток : 7645 Кбит/сек
Название фильма : The Hunger Games: Catching Fire [BDRip-720p 60 FPS]
Дата кодирования : UTC 2014-03-21 07:34:24
Программа кодирования : mkvmerge v6.5.0 ('Isn't she lovely') built on Oct 20 2013 12:50:05
Библиотека кодирования : libebml v1.3.0 + libmatroska v1.4.1
Обложка : Yes

Видео
Идентификатор : 1
Формат : AVC
Формат/Информация : Advanced Video Codec
Профиль формата : High@L4.0
Параметр CABAC формата : Да
Параметр ReFrames формата : 8 кадров
Идентификатор кодека : V_MPEG4/ISO/AVC
Продолжительность : 2 ч. 26 м.
Битрейт : 6213 Кбит/сек
Ширина : 1280 пикселей
Высота : 720 пикселей
Соотношение сторон : 16:9
Режим частоты кадров : Постоянный
Частота кадров : 59,880 кадров/сек
Частота кадров в оригинале : 59,940 кадров/сек
Цветовое пространство : YUV
Субдискретизация насыщенности : 4:2:0
Битовая глубина : 8 бит
Тип развёртки : Прогрессивная
Бит/(Пиксели*Кадры) : 0.113
Размер потока : 6,35 Гбайт (81%)
Библиотека кодирования : x264 core 138 r2358 9e941d1
Настройки программы : cabac=1 / ref=8 / deblock=1:-3:-2 / analyse=0x3:0x133 / me=umh / subme=9 / psy=1 / psy_rd=1.00:0.00 / mixed_ref=1 / me_range=24 / chroma_me=1 / trellis=2 / 8x8dct=1 / cqm=0 / deadzone=21,11 / fast_pskip=0 / chroma_qp_offset=-2 / threads=6 / lookahead_threads=1 / sliced_threads=0 / nr=0 / decimate=0 / interlaced=0 / bluray_compat=0 / constrained_intra=0 / bframes=5 / b_pyramid=2 / b_adapt=2 / b_bias=0 / direct=3 / weightb=1 / open_gop=0 / weightp=2 / keyint=599 / keyint_min=59 / scenecut=40 / intra_refresh=0 / rc_lookahead=60 / rc=crf / mbtree=1 / crf=17.0 / qcomp=0.60 / qpmin=0 / qpmax=69 / qpstep=4 / ip_ratio=1.40 / aq=1:1.00
Язык : English
Default : Да
Forced : Нет

Аудио #1
Идентификатор : 2
Формат : AC-3
Формат/Информация : Audio Coding 3
Расширение режима : CM (complete main)
Параметр Endianness формата : Big
Идентификатор кодека : A_AC3
Продолжительность : 2 ч. 26 м.
Вид битрейта : Постоянный
Битрейт : 640 Кбит/сек
Каналы : 6 каналов
Расположение каналов : Front: L C R, Side: L R, LFE
Частота : 48,0 КГц
Битовая глубина : 16 бит
Метод сжатия : С потерями
Размер потока : 669 Мбайт (8%)
Заголовок : Rus
Язык : Russian
Default : Да
Forced : Нет

Аудио #2
Идентификатор : 3
Формат : AC-3
Формат/Информация : Audio Coding 3
Расширение режима : CM (complete main)
Параметр Endianness формата : Big
Идентификатор кодека : A_AC3
Продолжительность : 2 ч. 26 м.
Вид битрейта : Постоянный
Битрейт : 640 Кбит/сек
Каналы : 6 каналов
Расположение каналов : Front: L C R, Side: L R, LFE
Частота : 48,0 КГц
Битовая глубина : 16 бит
Метод сжатия : С потерями
Размер потока : 669 Мбайт (8%)
Заголовок : Eng
Язык : English
Default : Нет
Forced : Нет

Текст #1
Идентификатор : 4
Формат : UTF-8
Идентификатор кодека : S_TEXT/UTF8
Идентификатор кодека/Информация : UTF-8 Plain Text
Заголовок : Rus
Язык : Russian
Default : Нет
Forced : Нет

Текст #2
Идентификатор : 5
Формат : UTF-8
Идентификатор кодека : S_TEXT/UTF8
Идентификатор кодека/Информация : UTF-8 Plain Text
Заголовок : Eng
Язык : English
Default : Нет
Forced : Нет


pb.wtf



Скачать Голодные игры: И вспыхнет пламя через торрент http://i67.fastpic.ru/big/2014/0802/a8/dd240d92e70b9967d3d0104f93af22a8.jpg Скачать фильм Голодные игры: И вспыхнет пламя через торрент бесплантно в хорошем качестве Описание: Сумев выжить на безжалостных Голодных играх, Китнисс Эвердин и Пит Мелларк возвращаются домой. Но теперь они в еще большей ... 9.8 10 14
Info! Золотая раздача, скачанное не засчитывается.
Торрент: Зарегистрирован [2014-08-02 15:39] · скачан: 291 раз
Статус: √ проверено
Размер: 7.81 GB
Как cкачать? Как скачать Голодные игры: И вспыхнет пламя через торрент | UTorrent

28-11-2019 20:33  

Отключить всю рекламу на сайте

02-08-2014 15:51 Голодные игры: И вспыхнет пламя Скачать торрент  

Отлично)pb.wtf



    Дорогой пользователь! Огромная просьба, поблагодарите релизера, оцените раздачу и оставьте свои комментарий, если Вы скачали Голодные игры: И вспыхнет пламя через торрент бесплатно! Внесите свою лепту в развитие PiratBit!
    Комментировать посты могут только пользователи прошедшие не сложную регистрацию
    Показать сообщения:    

    Голодные игры: И вспыхнет пламя через торрент
    Скачать бесплатно Голодные игры: И вспыхнет пламя
    Голодные игры: И вспыхнет пламя скачать торрент
    Голодные игры: И вспыхнет пламя смотреть онлайн
    Cкачать фильм Голодные игры: И вспыхнет пламя бесплатно
    Голодные игры: И вспыхнет пламя скачать торрент в хорошем качестве
    Голодные игры: И вспыхнет пламя смотреть онлайн бесплатно в хорошем качестве


    Вы не можете начинать темы
    Вы не можете отвечать на сообщения
    Вы не можете редактировать свои сообщения
    Вы не можете удалять свои сообщения
    Вы не можете голосовать в опросах
    Вы не можете прикреплять файлы к сообщениям
    Вы можете скачивать файлы