Ссылка на приватное зеркало всего за 1$. Внимание количество ограничено!!!

OK

1+1

iTunes

мы

OK

1

WEB-DLRip

Джокер

Пифагор

Ведьмак / The Witcher сериал

Лицензия

ПШазам

ОК

Оно 2

iTunes

30
pack

Вам бонус

ВАЖНО

!!Акция!!

Alien_RageХит недели

RePack

Resident Evil 21

ИГРА 18+

pack

RePack

jed

!!Акция!!

Alien_Rage

RePack

fifa19

RePack

Assassins Creed: Odyssey

RePack

NEED FOR SPEED™ PAYBACK

4 сезон

9 сезон

Бесстыжие 9 сезон

Все сериалы

все сериалы на PB.wtf

RePack

FAR CRY 5
  

Большой Бак / Big Buck Bunny (Саха Гудегебуре) [2008 г., мультфильм, короткометражка, комедия, BDRip 1080p,] pb.wtf

Большой Бак через торрент pb.wtf

Раздают: 1 [ 0 KB/s ]
Размер: 619 MB | Добавлен: 5 лет 5 мес. назад | Торрент скачан:91 раз
Скачать  

03-08-2014 07:55 Большой Бак Скачать торрент  

Большой Бак / Big Buck Bunny
Год выпуска: 2008
Страна: Нидерланды, Blender Foundation, Peach Open Movie Team
Жанр: мультфильм, короткометражка, комедия
Продолжительность: 00:10:00
Перевод: Не требуется

Режиссер: Саха Гудегебуре
Продюссер: Тон Росендал
Сценарий: Саха Гудегебуре

Премьера в мире: 10 апреля 2008

IMDB 6.80 (1314)


Описание: История о большом белом кролике, доброта которого больше чем он сам. В один солнечный день три грызуна начали издеваться над Баком.... и он понял: «С меня хватит!». Он приготовил ироничную месть для подлых грызунов...

Качество: BDRip 1080p
Формат: MKV
Видео кодек: AVC
Аудио кодек: AC3
Видео: MPEG 4 AVC, 8000 Кбит/с, 1920х1080(16:9), 24.000 кадр/с
Аудио#1: Английский ( AC3, 640 Кбит/с, 6 ch, 48.0 КГц, 16 бит)
скриншот  скриншот  скриншот  

Общее
Уникальный идентификатор : 234538014743196701612761575302396454812 (0xB07260E9E7A87BC2A55E162ABC3D279C)
Полное имя : E:\Big.Buck.Bunny.2008.x264.BDRip.1080p.mkv
Формат : Matroska
Версия формата : Version 2
Размер файла : 619 Мбайт
Продолжительность : 10 м.
Общий поток : 8641 Кбит/сек
Дата кодирования : UTC 2012-05-02 17:55:59
Программа кодирования : mkvmerge v5.5.0 ('Healer') built on Apr 6 2012 21:43:24
Библиотека кодирования : libebml v1.2.3 + libmatroska v1.3.0

Видео
Идентификатор : 1
Формат : AVC
Формат/Информация : Advanced Video Codec
Профиль формата : High@L4.1
Параметр CABAC формата : Да
Параметр ReFrames формата : 4 кадра
Идентификатор кодека : V_MPEG4/ISO/AVC
Продолжительность : 10 м.
Битрейт : 8000 Кбит/сек
Ширина : 1920 пикселей
Высота : 1080 пикселей
Соотношение сторон : 16:9
Режим частоты кадров : Постоянный
Частота кадров : 24,000 кадра/сек
Цветовое пространство : YUV
Субдискретизация насыщенности : 4:2:0
Битовая глубина : 8 бит
Тип развёртки : Прогрессивная
Бит/(Пиксели*Кадры) : 0.161
Размер потока : 560 Мбайт (91%)
Библиотека кодирования : x264 core 122 r2184 5c85e0a
Настройки программы : cabac=1 / ref=4 / deblock=1:0:0 / analyse=0x3:0x133 / me=umh / subme=11 / psy=1 / psy_rd=1.00:0.00 / mixed_ref=1 / me_range=64 / chroma_me=1 / trellis=2 / 8x8dct=1 / cqm=0 / deadzone=21,11 / fast_pskip=0 / chroma_qp_offset=-2 / threads=1 / sliced_threads=0 / nr=0 / decimate=1 / interlaced=0 / bluray_compat=0 / constrained_intra=0 / bframes=5 / b_pyramid=2 / b_adapt=2 / b_bias=0 / direct=3 / weightb=1 / open_gop=0 / weightp=2 / keyint=250 / keyint_min=23 / scenecut=40 / intra_refresh=0 / rc_lookahead=60 / rc=2pass / mbtree=1 / bitrate=8000 / ratetol=1.0 / qcomp=0.60 / qpmin=7 / qpmax=54 / qpstep=4 / cplxblur=20.0 / qblur=0.5 / vbv_maxrate=50000 / vbv_bufsize=62500 / nal_hrd=none / ip_ratio=1.40 / aq=2:0.80
Язык : English
Default : Да
Forced : Нет

Аудио
Идентификатор : 2
Формат : AC-3
Формат/Информация : Audio Coding 3
Расширение режима : CM (complete main)
Параметр Endianness формата : Big
Идентификатор кодека : A_AC3
Продолжительность : 10 м.
Вид битрейта : Постоянный
Битрейт : 640 Кбит/сек
Каналы : 6 каналов
Расположение каналов : Front: L C R, Side: L R, LFE
Частота : 48,0 КГц
Битовая глубина : 16 бит
Метод сжатия : С потерями
Размер потока : 45,8 Мбайт (7%)
Заголовок : AC3 5.1 ch 640 kbps
Язык : English
Default : Да
Forced : Нет


Большой Бак скачать торрент


pb.wtf



Скачать Большой Бак через торрент http://pic.kartinco.top/images/6/1rnag.jpg Скачать фильм Большой Бак через торрент бесплантно в хорошем качестве Описание: История о большом белом кролике, доброта которого больше чем он сам. В один солнечный день три грызуна начали издеваться над ... 10 10 9
Info! Золотая раздача, скачанное не засчитывается.
Торрент: Зарегистрирован [2014-08-03 07:55] · скачан: 91 раз
Статус: √ проверено
Размер: 619 MB
Как cкачать? Как скачать Большой Бак через торрент | qTorrent

% Раздел Тема Автор DL S | L
Короткометражные мультфильмы (HD Video) [ 259 MB ] Большой Бак / Big Buck Bunny [2008 мультфильм короткометражка HDRip 1080р] batya1972 Скачать
1 | 0

28-11-2019 20:33  

Отключить всю рекламу на сайте

03-08-2014 08:31 Большой Бак Скачать торрент  

Он без слов или на русском?pb.wtf



03-08-2014 12:34 Большой Бак Скачать торрент  

скорей всего без слов с учетом что страна производитель Нидерландыpb.wtf



    Дорогой пользователь! Огромная просьба, поблагодарите релизера, оцените раздачу и оставьте свои комментарий, если Вы скачали Большой Бак через торрент бесплатно! Внесите свою лепту в развитие PiratBit!
    Комментировать посты могут только пользователи прошедшие не сложную регистрацию
    Показать сообщения:    

    Большой Бак через торрент
    Скачать бесплатно Большой Бак
    Большой Бак скачать торрент
    Большой Бак смотреть онлайн
    Cкачать фильм Большой Бак бесплатно
    Большой Бак скачать торрент в хорошем качестве
    Большой Бак смотреть онлайн бесплатно в хорошем качестве


    Вы не можете начинать темы
    Вы не можете отвечать на сообщения
    Вы не можете редактировать свои сообщения
    Вы не можете удалять свои сообщения
    Вы не можете голосовать в опросах
    Вы не можете прикреплять файлы к сообщениям
    Вы можете скачивать файлы