1 сезон

1 сезон

iTunes

1

КиноПоиск HD

Кинопоиск HD

iTunes

13

1 сезон

RePack

30

Новинка

ВАЖНО

ИГРА 18+

pack

RePack

MK11
pack

Легкие деньги

RePack

jed

RePack

fifa19

RePack

RDR2

RePack

NEED FOR SPEED™ PAYBACK

4 сезон

9 сезон

Бесстыжие 9 сезон

Все сериалы

все сериалы на PB.wtf

RePack

FAR CRY 5
  
Magnet ссылка

Мужчина в доме / Man of the House (Стивен Херек) [2005 г., боевик, комедия, HDRip, Профессиональный двухголосый] pb.wtf

Мужчина в доме через торрент pb.wtf

Размер: 742 MB | Добавлен: 6 лет 8 мес. назад | Торрент скачан:158 раз
Скачать  

03-08-2014 08:31 Мужчина в доме Скачать торрент  

Мужчина в доме / Man of the House
Год выпуска: 2005
Страна: США
Жанр: боевик, комедия
Продолжительность: 01:39:55
Перевод: Профессиональный двухголосый

Режиссер: Стивен Херек
Продюссер: Тодд Гарнер, Стивен Ретер, Эллин Стюарт
Сценарий: Джон Дж. МакЛафлин, Роберт Рэмси, Мэтью Стоун

Бюджет: $40 000 000
Премьера в мире: 25 февраля 2005

детям до 13 лет просмотр не желателен


В ролях: Томми Ли Джонс, Седрик «Развлекатель», Кристина Милиан, Паула Гарсес, Моника Кина, Ванесса Ферлито, Келли Гарнер, Энн Арчер, Брайан Ван Холт, Ши Уигхэм, Терри Паркс, Р. Ли Эрми, Пэйджет Брюстер

Описание: Невозмутимый, крутой и саркастичный Роланд Шарп — воплощенный идеал техасского рейнджера. Одинаково хорошо владеющий острым словцом и верным револьвером, он всегда с блеском выполнял любые задания. Но теперь его ждет поистине суровая миссия: герой должен… круглые сутки охранять пять девушек-болельщиц, ставших свидетелями убийства!

Под видом помощника тренера Шарп примыкает к их команде, еще не ведая, что ему предстоит не столько оборонять дерзких ангелочков, сколько обороняться от них самому. День за днем проказницы изобретают все новые каверзы, дабы вывести своего героически отражающего их нападки стража из себя. Но настает день, когда атака последует совсем с другой стороны.

Качество: HDRip
Формат: AVI
Видео кодек: XviD
Аудио кодек: MP3
Видео: 900 Kбит/сек, 720х304, 23,976 кадра/сек,
Аудио#1: 128 Кбит/сек, 48 КГц, 2 канала
скриншот   скриншот   скриншот  

Общее
Полное имя : D:\Закачки\Man.of.the.House.2005_HDRip__[scarabey.org].avi
Формат : AVI
Формат/Информация : Audio Video Interleave
Размер файла : 742 Мбайт
Продолжительность : 1 ч. 39 м.
Общий поток : 1038 Кбит/сек
Программа кодирования : VirtualDubMod 1.5.10.3 | www.virtualdub-fr.org || (build 2550/release)
Библиотека кодирования : VirtualDubMod build 2550/release

Видео
Идентификатор : 0
Формат : MPEG-4 Visual
Профиль формата : Advanced Simple@L5
Параметр BVOP формата : 1
Параметр QPel формата : Нет
Параметр GMC формата : Без точки перехода
Параметр матрицы формата : Выборочная
Идентификатор кодека : XVID
Идентификатор кодека/Подсказка : XviD
Продолжительность : 1 ч. 39 м.
Битрейт : 900 Кбит/сек
Ширина : 720 пикселей
Высота : 304 пикселя
Соотношение сторон : 2,35:1
Частота кадров : 23,976 кадра/сек
Цветовое пространство : YUV
Субдискретизация насыщенности : 4:2:0
Битовая глубина : 8 бит
Тип развёртки : Прогрессивная
Метод сжатия : С потерями
Бит/(Пиксели*Кадры) : 0.172
Размер потока : 643 Мбайт (87%)
Библиотека кодирования : XviD 73

Аудио
Идентификатор : 1
Формат : MPEG Audio
Версия формата : Version 1
Профиль формата : Layer 3
Идентификатор кодека : 55
Идентификатор кодека/Подсказка : MP3
Продолжительность : 1 ч. 39 м.
Вид битрейта : Постоянный
Битрейт : 128 Кбит/сек
Каналы : 2 канала
Частота : 48,0 КГц
Метод сжатия : С потерями
Размер потока : 91,5 Мбайт (12%)
Выравнивание : Соединение по промежуткам
Продолжительность промежутка : 42 мс. (1,00 видеокадр)
Время предзагрузки промежутка : 504 мс.
Библиотека кодирования : LAME3.99r
Настройки программы : -m s -V 4 -q 2 -lowpass 17 -b 128

pb.wtf



Скачать Мужчина в доме через торрент https://pic.kartinco.top/images/6/tsnz7.jpg Скачать фильм Мужчина в доме через торрент бесплантно в хорошем качестве Описание: Невозмутимый, крутой и саркастичный Роланд Шарп — воплощенный идеал техасского рейнджера. Одинаково хорошо владеющий острым ... 10 10 7
Торрент: Зарегистрирован [2014-08-03 08:31] · скачан: 158 раз
Статус: √ проверено
Размер: 742 MB
Как cкачать? Как скачать Мужчина в доме через торрент | UTorrent

28-11-2019 20:33  

Отключить всю рекламу на сайте

    Дорогой пользователь! Огромная просьба, поблагодарите релизера, оцените раздачу и оставьте свои комментарий, если Вы скачали Мужчина в доме через торрент бесплатно! Внесите свою лепту в развитие PiratBit!
    Комментировать посты могут только пользователи прошедшие не сложную регистрацию
    Показать сообщения:    

    Мужчина в доме через торрент
    Скачать бесплатно Мужчина в доме
    Мужчина в доме скачать торрент
    Мужчина в доме смотреть онлайн
    Cкачать фильм Мужчина в доме бесплатно
    Мужчина в доме скачать торрент в хорошем качестве
    Мужчина в доме смотреть онлайн бесплатно в хорошем качестве


    Вы не можете начинать темы
    Вы не можете отвечать на сообщения
    Вы не можете редактировать свои сообщения
    Вы не можете удалять свои сообщения
    Вы не можете голосовать в опросах
    Вы не можете прикреплять файлы к сообщениям
    Вы можете скачивать файлы