Ссылка на приватное зеркало нашего сайта всего за 1$. Внимание количество ограничено!!!

2 сезон

iTunes

1 сезон

1

iTunes

iTunes

iTunes

1 сезон

RePack

30

ИГРА 18+

pack

ВАЖНО

!!Акция!!

Alien_RageХит недели

RePack

MK11
pack

Забери бонус

RePack

jed

!!Акция!!

Alien_Rage

RePack

fifa19

RePack

Assassins Creed: Odyssey

RePack

NEED FOR SPEED™ PAYBACK

4 сезон

9 сезон

Бесстыжие 9 сезон

Все сериалы

все сериалы на PB.wtf

RePack

FAR CRY 5
  

Недотрога (Cерии 1-4 из 4) (Алексей Праздников) [2014 г., Мелодрама, SATRip] pb.wtf

Недотрога через торрент pb.wtf

Размер: 2.55 GB | Добавлен: 6 лет 2 мес. назад | Торрент скачан:499 раз
Скачать  

03-08-2014 13:22 Недотрога Скачать торрент  

НедотрогаГод выпуска: 2014
Страна: Россия
Жанр: Мелодрама
Продолжительность: 44 минуты серия

Режиссер: Алексей Праздников

В ролях: Дарья Баранова, Марта Голубева, Андрей Градов, Алексей Анищенко, Валентина Гарцуева, Алексей Яровенко, Илья Сотиков, Инна Гончар, Наталья Онищенко, Олеся Грибок, Валерий Зеленский, Андрей Зазерский

Описание: Говорят, что студенческая дружба - самая крепкая и чистая. В эту истину верила и юная Аня, когда доверяла все свои секреты коварной и завистливой Светке. Но так вышло, что Аня понравилась Мише, которого Светка "присмотрела" для себя. Став невольной разлучницей - а ведь Аня поначалу на Мишу и смотреть не хотела, - девушка навлекла на себя самую черную зависть подруги.

Качество: SATRip
Формат: AVI
Видео кодек: XviD
Аудио кодек: AC3
Видео: MPEG4, XviD, 720x400 (16:9), 25.000 fps, 1 800 Kbps (0.250 bit/pixel)
Аудио: AC-3, 48.0 KHz, 2 ch, 192 Kbps, CBR
скриншот   скриншот   скриншот   скриншот   скриншот   скриншот   скриншот   скриншот  

Код:

Общее
Полное имя                               : D:\Games\Nedotroga\Nedotroga.01.SATRip.avi
Формат                                   : AVI
Формат/Информация                        : Audio Video Interleave
Размер файла                             : 631 Мбайт
Продолжительность                        : 44 м.
Общий поток                              : 2002 Кбит/сек
Программа кодирования                    : VirtualDubMod 1.5.10.3 | www.virtualdub-fr.org || (build 2550/release)
Библиотека кодирования                   : VirtualDubMod build 2550/release

Видео
Идентификатор                            : 0
Формат                                   : MPEG-4 Visual
Профиль формата                          : Advanced Simple@L5
Параметр BVOP формата                    : 2
Параметр QPel формата                    : Нет
Параметр GMC формата                     : Без точки перехода
Параметр матрицы формата                 : Default (H.263)
Идентификатор кодека                     : XVID
Идентификатор кодека/Подсказка           : XviD
Продолжительность                        : 44 м.
Битрейт                                  : 1800 Кбит/сек
Ширина                                   : 720 пикселей
Высота                                   : 400 пикселей
Соотношение сторон                       : 16:9
Частота кадров                           : 25,000 кадров/сек
Цветовое пространство                    : YUV
Субдискретизация насыщенности            : 4:2:0
Битовая глубина                          : 8 бит
Тип развёртки                            : Прогрессивная
Метод сжатия                             : С потерями
Бит/(Пиксели*Кадры)                      : 0.250
Размер потока                            : 568 Мбайт (90%)
Библиотека кодирования                   : XviD 1.2.1 (UTC 2008-12-04)

Аудио
Идентификатор                            : 1
Формат                                   : AC-3
Формат/Информация                        : Audio Coding 3
Расширение режима                        : CM (complete main)
Параметр Endianness формата              : Big
Идентификатор кодека                     : 2000
Продолжительность                        : 44 м.
Вид битрейта                             : Постоянный
Битрейт                                  : 192 Кбит/сек
Каналы                                   : 2 канала
Расположение каналов                     : Front: L R
Частота                                  : 48,0 КГц
Битовая глубина                          : 16 бит
Метод сжатия                             : С потерями
Размер потока                            : 60,6 Мбайт (10%)
Выравнивание                             : Разделение по промежуткам
Продолжительность промежутка             : 40  мс. (1,00 видеокадр)
Время предзагрузки промежутка            : 500  мс.


pb.wtf



Скачать Недотрога через торрент http://pic.kartinco.top/new/img/2014-08/03/xnad041q8blez3pyme8k8ev1s.jpg Скачать фильм Недотрога через торрент бесплантно в хорошем качестве Описание: Говорят, что студенческая дружба - самая крепкая и чистая. В эту истину верила и юная Аня, когда доверяла все свои секреты ... 10 10 12
Info! Золотая раздача, скачанное не засчитывается.
Торрент: Зарегистрирован [2014-08-03 13:22] · скачан: 499 раз
Статус: √ проверено
Размер: 2.55 GB
Как cкачать? Как скачать Недотрога через торрент | qTorrent

% Раздел Тема Автор DL S | L
Отечественная Поп музыка (сборники) (mp3) [ 177 MB ] Аркадий Хоралов - Недотрога 2004 / MP3 / 320 kbps / PopRetro megatoxa Скачать
1 | 0
Сцены из фильмов и Сайтрипы с русскими актрисами [ 449 MB ] Недотрогу блондинку по-простецки в попу / Connie & Nicholas. [Anal-Pantyhose] [2011 All sex Oral sex Anal sex. HDRip] Pir@tya2010 Скачать
1 | 0

28-11-2019 20:33  

Отключить всю рекламу на сайте

    Дорогой пользователь! Огромная просьба, поблагодарите релизера, оцените раздачу и оставьте свои комментарий, если Вы скачали Недотрога через торрент бесплатно! Внесите свою лепту в развитие PiratBit!
    Комментировать посты могут только пользователи прошедшие не сложную регистрацию
    Показать сообщения:    

    Недотрога через торрент
    Скачать бесплатно Недотрога
    Недотрога скачать торрент
    Недотрога смотреть онлайн
    Cкачать фильм Недотрога бесплатно
    Недотрога скачать торрент в хорошем качестве
    Недотрога смотреть онлайн бесплатно в хорошем качестве


    Вы не можете начинать темы
    Вы не можете отвечать на сообщения
    Вы не можете редактировать свои сообщения
    Вы не можете удалять свои сообщения
    Вы не можете голосовать в опросах
    Вы не можете прикреплять файлы к сообщениям
    Вы можете скачивать файлы