2 сезон

iTunes

MVO

1

2 сезон

iTunes

iTunes

1 сезон

RePack

30

Ultimate

ВАЖНО

ИГРА 18+

pack

RePack

MK11
pack

Легкие деньги

RePack

jed

RePack

fifa19

RePack

RDR2

RePack

NEED FOR SPEED™ PAYBACK

4 сезон

9 сезон

Бесстыжие 9 сезон

Все сериалы

все сериалы на PB.wtf

RePack

FAR CRY 5

Anonymous, доброе утро, мы не успеваем собрать деньги на оплату серверов за декабрь и январь, помогите нам пожалуйста в это трудное время. В качестве благодарности мы отключим Вам всю рекламу на сайте (укажите свой ник в строку Ваше имя)!

×
  
Magnet ссылка

Мстители / The Avengers (Джосс Уидон) [2012 г., фантастика, фэнтези, боевик, приключения, BDRip 1080p, Дубляж, Лицензия] 60 fps pb.wtf

Мстители через торрент pb.wtf

Размер: 24.11 GB | Добавлен: 6 лет 5 мес. назад | Торрент скачан:817 раз
Скачать  

03-08-2014 13:29 Мстители Скачать торрент  

Мстители / The Avengers Год выпуска: 2012
Страна: США
Жанр: фантастика, фэнтези, боевик, приключения
Продолжительность: 02:22:55




Перевод: Дубляж, Лицензия + Дубляж, Украинский
Субтитры: Russian, Ukrainian




Режиссер: Джосс Уидон









В ролях: Роберт Дауни мл., Крис Эванс, Марк Руффало, Крис Хемсворт, Скарлетт Йоханссон, Джереми Реннер, Том Хиддлстон, Сэмюэл Л. Джексон, Кларк Грегг, Коби Смолдерс, Стеллан Скарсгард, Гвинет Пэлтроу.




Описание: Локи, сводный брат Тора, возвращается, и в этот раз он не один. Земля на грани порабощения, и только лучшие из лучших могут спасти человечество.

Ник Фьюри, глава международной организации Щ. И. Т., собирает выдающихся поборников справедливости и добра, чтобы отразить атаку. Под предводительством Капитана Америки Железный Человек, Тор, Невероятный Халк, Соколиный глаз и Чёрная Вдова вступают в войну с захватчиком.




Качество: BDRip 1080p
Формат: MKV
Видео кодек: AVC
Аудио кодек: AC3
Видео: AVC, 1920x1080 (16/9), 59.940 fps, 23.0 Mbps
Аудио 1: AC-3, 48.0 KHz, 6 ch, 640 Kbps, CBR (Дубляж / Лицензия)
Аудио 2: AC-3, 48.0 KHz, 6 ch, 640 Kbps, CBR (Дубляж / Украинский)




скриншот   скриншот   скриншот  

скриншот   скриншот  

скриншот  
General
Unique ID : 230429191042380524298737870137352123986 (0xAD5B0C43C2B6F5B38D0303C05925F652)
Complete name : D:\Моя музыка\Мстители.2012.BDRip.1080p.60fps..Rus.Ukr.PSLanLaboratory.mkv
Format : Matroska
Format version : Version 4 / Version 2
File size : 24.1 GiB
Duration : 2h 22mn
Overall bit rate : 24.2 Mbps
Movie name : pslan.com
Encoded date : UTC 2013-04-08 18:22:32
Writing application : mkvmerge v6.1.0 ('Old Devil') built on Mar 2 2013 14:32:37
Writing library : libebml v1.3.0 + libmatroska v1.4.0

Video
ID : 1
Format : AVC
Format/Info : Advanced Video Codec
Format profile : High@L4.2
Format settings, CABAC : Yes
Format settings, ReFrames : 4 frames
Codec ID : V_MPEG4/ISO/AVC
Duration : 2h 22mn
Bit rate : 23.0 Mbps
Width : 1 920 pixels
Height : 1 080 pixels
Display aspect ratio : 16:9
Frame rate mode : Constant
Frame rate : 59.880 fps
Original frame rate : 59.940 fps
Color space : YUV
Chroma subsampling : 4:2:0
Bit depth : 8 bits
Scan type : Progressive
Bits/(Pixel*Frame) : 0.185
Stream size : 22.4 GiB (93%)
Writing library : x264 core 120 r2120kMod 0c7dab9
Encoding settings : cabac=1 / ref=4 / deblock=1:0:0 / analyse=0x3:0x13 / me=umh / subme=7 / psy=1 / fade_compensate=0.00 / psy_rd=1.00:0.00 / mixed_ref=1 / me_range=10 / chroma_me=1 / trellis=1 / 8x8dct=1 / cqm=0 / deadzone=21,11 / fast_pskip=1 / chroma_qp_offset=-2 / threads=2 / sliced_threads=1 / slices=2 / nr=0 / decimate=1 / interlaced=0 / bluray_compat=0 / constrained_intra=0 / bframes=0 / weightp=2 / keyint=300 / keyint_min=30 / scenecut=40 / intra_refresh=0 / rc=abr / mbtree=0 / bitrate=23000 / ratetol=1.0 / qcomp=0.60 / qpmin=10 / qpmax=51 / qpstep=4 / ip_ratio=1.40 / aq=1:1.00
Default : Yes
Forced : No

Audio #1
ID : 2
Format : AC-3
Format/Info : Audio Coding 3
Mode extension : CM (complete main)
Format settings, Endianness : Big
Codec ID : A_AC3
Duration : 2h 22mn
Bit rate mode : Constant
Bit rate : 640 Kbps
Channel(s) : 6 channels
Channel positions : Front: L C R, Side: L R, LFE
Sampling rate : 48.0 KHz
Bit depth : 16 bits
Compression mode : Lossy
Stream size : 654 MiB (3%)
Title : rus
Language : Russian
Default : Yes
Forced : No

Audio #2
ID : 3
Format : AC-3
Format/Info : Audio Coding 3
Mode extension : CM (complete main)
Format settings, Endianness : Big
Codec ID : A_AC3
Duration : 2h 22mn
Bit rate mode : Constant
Bit rate : 640 Kbps
Channel(s) : 6 channels
Channel positions : Front: L C R, Side: L R, LFE
Sampling rate : 48.0 KHz
Bit depth : 16 bits
Compression mode : Lossy
Stream size : 654 MiB (3%)
Title : ukr
Language : Ukrainian
Default : No
Forced : No

Text #1
ID : 4
Format : PGS
Muxing mode : zlib
Codec ID : S_HDMV/PGS
Codec ID/Info : The same subtitle format used on BDs/HD-DVDs
Language : Russian
Default : No
Forced : No

Text #2
ID : 5
Format : PGS
Muxing mode : zlib
Codec ID : S_HDMV/PGS
Codec ID/Info : The same subtitle format used on BDs/HD-DVDs
Language : Ukrainian
Default : No
Forced : No
pb.wtf



Скачать Мстители через торрент http://i65.fastpic.ru/big/2014/0803/fe/5ba3d9af476050d3cc8d58121cc6dbfe.png Скачать фильм Мстители через торрент бесплантно в хорошем качестве Описание: Локи, сводный брат Тора, возвращается, и в этот раз он не один. Земля на грани порабощения, и только лучшие из лучших могут ... 9.8 10 31
Info! Золотая раздача, скачанное не засчитывается.
Торрент: Зарегистрирован [2014-08-03 13:48] · скачан: 817 раз
Статус: √ проверено
Размер: 24.11 GB
Как cкачать? Как скачать Мстители через торрент | UTorrent

% Раздел Тема Автор DL S | L
Фильмы (HD 720p, 1080p) (48-60 fps) [ 5.91 GB ] Мстители / The Avengers [2012 BDRip 720p / 60 FPS BD CEE] от R.G. HD-Films slaventi-69 Скачать
2 | 0
Фильмы (HD 720p, 1080p) (48-60 fps) [ 12.41 GB ] Первый мститель / Captain America: The First Avenger [2011 BDRip - HEVC 1080p 12 bit 60 FPS] DUB dd2d3 Скачать
1 | 0

28-11-2019 20:33  

Отключить всю рекламу на сайте

04-08-2014 07:29 Мстители Скачать торрент  

нифига се размерчик а нет хотя бы на гигов 10 меньше?pb.wtf



28-08-2014 18:05 Мстители Скачать торрент  

откуда такой размер :jest3: :jest3:pb.wtf



19-04-2015 19:37 Мстители Скачать торрент  

битрей

markizVi писал(а):

нифига се размерчик а нет хотя бы на гигов 10 меньше?

KorvoAntano писал(а):

откуда такой размер :jest3: :jest3:

как бы намекает "Общий Битрейт : 24.2 Mbps"
Спасибо хотел как раз посмотреть его в 60 фпсpb.wtf



    Дорогой пользователь! Огромная просьба, поблагодарите релизера, оцените раздачу и оставьте свои комментарий, если Вы скачали Мстители через торрент бесплатно! Внесите свою лепту в развитие PiratBit!
    Комментировать посты могут только пользователи прошедшие не сложную регистрацию
    Показать сообщения:    

    Мстители через торрент
    Скачать бесплатно Мстители
    Мстители скачать торрент
    Мстители смотреть онлайн
    Cкачать фильм Мстители бесплатно
    Мстители скачать торрент в хорошем качестве
    Мстители смотреть онлайн бесплатно в хорошем качестве


    Вы не можете начинать темы
    Вы не можете отвечать на сообщения
    Вы не можете редактировать свои сообщения
    Вы не можете удалять свои сообщения
    Вы не можете голосовать в опросах
    Вы не можете прикреплять файлы к сообщениям
    Вы можете скачивать файлы