Всегда рабочее зеркало без VPN и Proxy просто перед .vidak.icu напиши любое слово или цифру, Пример http://a87r.vidak.icu

MVO

MVO

1 сезон

1

1 сезон

iTunes

1 сезон

13

1 сезон

Deluxe

pack

Рекомендуем

Repack

30

ВАЖНО

RePack

MK11

RePack

jed

RePack

fifa19

RePack

RDR2

RePack

NEED FOR SPEED™ PAYBACK

Кинопоиск HD

6 сезон

 Острые козырьки 6 сезон

Все сериалы

все сериалы на PB.wtf

RePack

FAR CRY 5
  
Magnet ссылка

Приключения мистера Пибоди и Шермана / Mr. Peabody & Sherman (Роб Минкофф / Rob Minkoff) [2014, Мультфильм, фантастика, комедия, приключения, BDRip-AVC] DUB Лицензия pb.wtf

Приключения мистера Пибоди и Шермана через торрент pb.wtf

Размер: 2.18 GB | Добавлен: 8 лет назад | Торрент скачан:777 раз
Смотреть онлайн Приключения мистера Пибоди и Шермана | Скачать    Ребята, помогите собрать деньги на оплату серверов!!!

03-08-2014 16:03 Приключения мистера Пибоди и Шермана Скачать торрент  

Приключения мистера Пибоди и Шермана / Mr. Peabody & Sherman
Год выпуска: 2014
Страна: США / Dreamworks Animation, Pacific Data Images (PDI), Bullwinkle Studios, Classic Media Productions
Жанр: Мультфильм, фантастика, комедия, приключения, семейный
Продолжительность: 01:33:08
Перевод: Дубляж [BD CEE]
Субтитры: Русские, украинские (полные + форс.) английские (Forced + Full + SDH + SDH-Colored)

Режиссер: Роб Минкофф / Rob Minkoff



В ролях: Тай Бурелл, Макс Чарльз, Эриель Винтер, Стефен Колбер, Лесли Манн, Эллисон Дженни, Стэнли Туччи, Том МакГрат, Лэйк Белл, Зак Каллисон

Описание: Мистер Пибоди — бизнесмен, изобретатель, ученый, нобелевский лауреат, гурман, двукратный олимпийский чемпион и гений… который кроме всего прочего является собакой. При помощи своего самого неординарного изобретения — машины ВЕЙБЕК — мистер Пибоди и его приемный сын Шерман мгновенно перемещаются в прошлое, где становятся свидетелями самых важных исторических событий и общаются с известными историческими персонажами. Но когда Шерман нарушает правила путешествий во времени, нашим героям приходится вновь отправиться в путь — на сей раз с целью восстановления цепи исторических событий и спасения будущего. Кроме того, мистеру Пибоди предстоит справиться с самой сложной для него задачей — стать настоящим отцом для Шермана....

Качество: BDRip-AVC
Формат: MKV
Видео кодек: H.264
Аудио кодек: AC3
Видео: 1008x546 (1,85:1), 23.976 fps, 2481 kbps, 0.188 bit/pixel
Аудио#1: 48 kHz, AC3 Dolby Digital, 3/2 (L,C,R,l,r) + LFE ch, 448.00 kbps | RUS
Аудио#2: 48 kHz, AC3 Dolby Digital, 3/2 (L,C,R,l,r) + LFE ch, 448.00 kbps | ENG

Релиз группы:
Автор рипа: potroks
Общее
Уникальный идентификатор : 238949536218201047614085018617415375956 (0xB3C401B717796A1EB0FDC00BBC8E9C54)
Полное имя : Priklucheniya.Mr.Pibodi.&.Shermana.2014.DUAL.BDRip.x264.-HELLYWOOD.mkv
Формат : Matroska
Версия формата : Version 4 / Version 2
Размер файла : 2,18 Гбайт
Продолжительность : 1 ч. 32 м.
Общий поток : 3380 Кбит/сек
Название фильма : Mr. Peabody & Sherman (2014) - HELLYWOOD
Дата кодирования : UTC 2014-08-03 15:53:05
Программа кодирования : mkvmerge v5.9.0 ('On The Loose') built on Dec 15 2012 16:39:58
Библиотека кодирования : libebml v1.3.0 + libmatroska v1.4.0

Видео
Идентификатор : 1
Формат : AVC
Формат/Информация : Advanced Video Codec
Профиль формата : [email protected]
Параметр CABAC формата : Да
Параметр ReFrames формата : 11 кадров
Идентификатор кодека : V_MPEG4/ISO/AVC
Продолжительность : 1 ч. 32 м.
Битрейт : 2481 Кбит/сек
Ширина : 1008 пикселей
Высота : 546 пикселей
Соотношение сторон : 1,85:1
Режим частоты кадров : Постоянный
Частота кадров : 23,976 кадра/сек
Цветовое пространство : YUV
Субдискретизация насыщенности : 4:2:0
Битовая глубина : 8 бит
Тип развёртки : Прогрессивная
Бит/(Пиксели*Кадры) : 0.188
Размер потока : 1,56 Гбайт (72%)
Заголовок : potroks
Библиотека кодирования : x264 core 130 r2273 b3065e6
Настройки программы : cabac=1 / ref=11 / deblock=1:-1:-1 / analyse=0x3:0x133 / me=umh / subme=11 / psy=1 / psy_rd=0.99:0.02 / mixed_ref=1 / me_range=48 / chroma_me=1 / trellis=2 / 8x8dct=1 / cqm=0 / deadzone=21,11 / fast_pskip=0 / chroma_qp_offset=-3 / threads=9 / lookahead_threads=6 / sliced_threads=0 / nr=0 / decimate=0 / interlaced=0 / bluray_compat=0 / constrained_intra=0 / bframes=12 / b_pyramid=2 / b_adapt=2 / b_bias=0 / direct=3 / weightb=1 / open_gop=0 / weightp=2 / keyint=250 / keyint_min=23 / scenecut=40 / intra_refresh=0 / rc_lookahead=60 / rc=2pass / mbtree=0 / bitrate=2481 / ratetol=1.0 / qcomp=0.70 / qpmin=0 / qpmax=69 / qpstep=4 / cplxblur=20.0 / qblur=0.5 / vbv_maxrate=52000 / vbv_bufsize=62500 / nal_hrd=none / ip_ratio=1.35 / pb_ratio=1.25 / aq=1:0.90
Язык : English
Default : Да
Forced : Нет

Аудио #1
Идентификатор : 2
Формат : AC-3
Формат/Информация : Audio Coding 3
Расширение режима : CM (complete main)
Параметр Endianness формата : Big
Идентификатор кодека : A_AC3
Продолжительность : 1 ч. 32 м.
Вид битрейта : Постоянный
Битрейт : 448 Кбит/сек
Каналы : 6 каналов
Расположение каналов : Front: L C R, Side: L R, LFE
Частота : 48,0 КГц
Битовая глубина : 16 бит
Метод сжатия : С потерями
Размер потока : 296 Мбайт (13%)
Заголовок : Dub | DD5.1 @ 448 kbps - Blu-Ray CEE
Язык : Russian
Default : Да
Forced : Да

Аудио #2
Идентификатор : 3
Формат : AC-3
Формат/Информация : Audio Coding 3
Расширение режима : CM (complete main)
Параметр Endianness формата : Big
Идентификатор кодека : A_AC3
Продолжительность : 1 ч. 32 м.
Вид битрейта : Постоянный
Битрейт : 448 Кбит/сек
Каналы : 6 каналов
Расположение каналов : Front: L C R, Side: L R, LFE
Частота : 48,0 КГц
Битовая глубина : 16 бит
Метод сжатия : С потерями
Размер потока : 296 Мбайт (13%)
Заголовок : Original | DD 5.1 @ 448 kbps
Язык : English
Default : Нет
Forced : Нет

Текст #1
Идентификатор : 4
Формат : UTF-8
Идентификатор кодека : S_TEXT/UTF8
Идентификатор кодека/Информация : UTF-8 Plain Text
Заголовок : полные
Язык : Russian
Default : Нет
Forced : Нет

Текст #2
Идентификатор : 5
Формат : UTF-8
Идентификатор кодека : S_TEXT/UTF8
Идентификатор кодека/Информация : UTF-8 Plain Text
Заголовок : полные
Язык : Ukrainian
Default : Нет
Forced : Нет

Текст #3
Идентификатор : 6
Формат : UTF-8
Идентификатор кодека : S_TEXT/UTF8
Идентификатор кодека/Информация : UTF-8 Plain Text
Заголовок : форс.
Язык : Ukrainian
Default : Нет
Forced : Нет

Текст #4
Идентификатор : 7
Формат : UTF-8
Идентификатор кодека : S_TEXT/UTF8
Идентификатор кодека/Информация : UTF-8 Plain Text
Заголовок : Forced
Язык : English
Default : Нет
Forced : Нет

Текст #5
Идентификатор : 8
Формат : UTF-8
Идентификатор кодека : S_TEXT/UTF8
Идентификатор кодека/Информация : UTF-8 Plain Text
Заголовок : SDH
Язык : English
Default : Нет
Forced : Нет

Текст #6
Идентификатор : 9
Формат : UTF-8
Идентификатор кодека : S_TEXT/UTF8
Идентификатор кодека/Информация : UTF-8 Plain Text
Заголовок : Full
Язык : English
Default : Нет
Forced : Нет

Текст #7
Идентификатор : 10
Формат : UTF-8
Идентификатор кодека : S_TEXT/UTF8
Идентификатор кодека/Информация : UTF-8 Plain Text
Заголовок : SDH-Colored
Язык : English
Default : Нет
Forced : Нет

Меню
00:00:00.000 : en:00:00:00.000
00:03:48.061 : en:00:03:48.061
00:07:12.223 : en:00:07:12.223
00:11:02.495 : en:00:11:02.495
00:13:30.018 : en:00:13:30.018
00:17:29.465 : en:00:17:29.465
00:21:48.516 : en:00:21:48.516
00:26:39.306 : en:00:26:39.306
00:28:40.177 : en:00:28:40.177
00:30:53.101 : en:00:30:53.101
00:33:57.452 : en:00:33:57.452
00:35:29.919 : en:00:35:29.919
00:37:47.182 : en:00:37:47.182
00:41:27.652 : en:00:41:27.652
00:44:47.685 : en:00:44:47.685
00:48:16.352 : en:00:48:16.352
00:51:48.981 : en:00:51:48.981
00:54:56.543 : en:00:54:56.543
00:58:32.801 : en:00:58:32.801
01:00:49.187 : en:01:00:49.187
01:02:53.186 : en:01:02:53.186
01:04:39.084 : en:01:04:39.084
01:08:22.265 : en:01:08:22.265
01:11:13.728 : en:01:11:13.728
01:14:52.655 : en:01:14:52.655
01:20:27.448 : en:01:20:27.448
01:21:40.312 : en:01:21:40.312
01:22:39.580 : en:01:22:39.580
pb.wtf



Скачать Приключения мистера Пибоди и Шермана через торрент https://pic.kartinco.top/new/img/2014-08/03/f74hac8lidpepfuwdip45o8tp.png Скачать, смотреть онлайн Приключения мистера Пибоди и Шермана бесплантно в хорошем качестве Описание: Мистер Пибоди — бизнесмен, изобретатель, ученый, нобелевский лауреат, гурман, двукратный олимпийский чемпион и гений… который ... 9.7 10 21
Торрент: Зарегистрирован [2014-08-03 16:03] · скачан: 777 раз
Статус: √ проверено
Размер: 2.18 GB
Как cкачать? Как скачать Приключения мистера Пибоди и Шермана через торрент | UTorrent



Последний раз редактировалось: potroks (2014-08-03 20:17), всего редактировалось 1 раз

28-11-2019 20:33  

Отключить вcю реклaмy на сайте

03-08-2014 19:49 Приключения мистера Пибоди и Шермана Скачать торрент  

potroks, Добавить MediaInfopb.wtf



    Дорогой пользователь! Огромная просьба, поблагодарите релизера, оцените раздачу и оставьте свои комментарий, если Вы скачали Приключения мистера Пибоди и Шермана через торрент бесплатно!
    Комментировать посты могут только пользователи прошедшие не сложную регистрацию
    Показать сообщения:    

    Приключения мистера Пибоди и Шермана через торрент
    Скачать бесплатно Приключения мистера Пибоди и Шермана
    Приключения мистера Пибоди и Шермана скачать торрент
    Приключения мистера Пибоди и Шермана смотреть онлайн
    Cкачать фильм Приключения мистера Пибоди и Шермана бесплатно
    Приключения мистера Пибоди и Шермана скачать торрент в хорошем качестве
    Приключения мистера Пибоди и Шермана смотреть онлайн бесплатно в хорошем качестве


    Вы не можете начинать темы
    Вы не можете отвечать на сообщения
    Вы не можете редактировать свои сообщения
    Вы не можете удалять свои сообщения
    Вы не можете голосовать в опросах
    Вы не можете прикреплять файлы к сообщениям
    Вы можете скачивать файлы