Ссылка на приватное зеркало нашего сайта всего за 1$. Внимание количество ограничено!!!

2 сезон

iTunes

1 сезон

1

2 сезон

2 сезон

iTunes

1 сезон

RePack

30

Новинка

ВАЖНО

ИГРА 18+

pack

RePack

MK11
pack

Забери бонус

RePack

jed

!!Акция!!

Alien_Rage

RePack

fifa19

RePack

Assassins Creed: Odyssey

RePack

NEED FOR SPEED™ PAYBACK

4 сезон

9 сезон

Бесстыжие 9 сезон

Все сериалы

все сериалы на PB.wtf

RePack

FAR CRY 5
  

Перевозчик 3 / Transporter 3 (Оливье Мегатон) [2008 г., Боевик, приключения, детектив, Blu-ray, Дубляж] pb.wtf

Перевозчик 3 через торрент pb.wtf

Размер: 34.26 GB | Добавлен: 6 лет 3 мес. назад | Торрент скачан:5 раз
Скачать  

03-08-2014 19:53 Перевозчик 3 Скачать торрент  

Перевозчик 3 / Transporter 3
Год выпуска: 2008
Страна: Франция
Жанр: Боевик, приключения, детектив
Продолжительность: 1:43:34
Перевод: Дубляж+Профессиональный двухголосый (Гланц и Королёва)+
Авторский одноголосый (Гаврилов)+Авторский одноголосый (Немахов)+Оригинал
Субтитры: Русские, английские

Режиссер: Оливье Мегатон

В ролях: Джейсон Стэйтем, Наталья Рудакова, Франсуа Берлеан, Роберт Неппер, Йерун Краббе, Алекс Коболд, Дэвид Атракчи, Ян Сандберг, Эрик Эбони, Дэвид Камменос

Описание: Фрэнк Мартин вынужден перевезти похищенную дочь главы "Агентства по охране окружающей среды" Валентину из Марселя через Штутгарт и Будапешт в Одессу, на Черное море. По дороге Фрэнку приходится бороться с людьми, которые вынудили его взяться за эту работу, а также непослушанием Валентины. Несмотря на здоровый цинизм и нежелание заводить романтические отношения, Фрэнка и Валентину все больше притягивает друг к другу. Опасности, подстерегающие их на каждом шагу, лишь обостряют их чувства.

Качество: Blu-ray
Формат: BDMV
Видео кодек: H.264
Аудио кодек: AC3-LPCM-DTS
Видео: MPEG-4 AVC, (1920x1080),30000 Кбит/с, 23.976 кадра/сек
Аудио#1: DTS 6 ch,1509 kbps (Rus) 48.0 KHz Дубляж
Аудио#2: LPCM 6 ch,4508 kbps (Rus) 48.0 KHz Дубляж
Аудио#3: DTS 6 ch,755 kbps (Rus) 48.0 KHz Профессиональный двухголосый (Гланц и Королёва)
Аудио#4: AC-3 6 ch,448 kbps (Rus) 48.0 KHz Авторский одноголосый (Гаврилов)
Аудио#5: AC-3 6 ch,448 kbps (Rus) 48.0 KHz Авторский одноголосый (Немахов)
Аудио#6: DTS 6 ch,1509 kbps (Eng) 48.0 KHz Оригинал
скриншот   скриншот   скриншот  

Тип потока: Видео
Длительность: 01:43:34
Кодек: AVC
Кодек/описание: Advanced Video Codec
Кодек/профиль: High@L4.1
Кодек/ID: 27
Кодек/CABAC: Yes
Кодек/ReFrames: 4 frames
Размеры изображения: 1920 x 1080 (16:9)
Частота кадров: 23.976 fps
Битрейт/макс: 38.0 Mbps
Битрейт/тип: VBR
Стандарт: NTSC
Цветовое пространство: YUV
Тип развёртки: Progressive
Колориметрия: 4:2:0
Глубина: 8 bits
:
Тип потока: Звук #1
Язык: Russian
Длительность: 01:43:34.123
Кодек: DTS
Кодек/описание: Digital Theater Systems
Кодек/профиль: MA / Core
Режим смешивания: Stream extension
Кодек/ID: 134
Частота дискретизации: 48.0 KHz
Каналов: 8 channels / 6 channels
Битрейт: Unknown / 1 509 Kbps
Битрейт/тип: Variable
Глубина: 16 bits
Метод сжатия: Lossless / Lossy
:
Тип потока: Звук #2
Язык: Russian
Длительность: 01:43:34.120
Кодек: PCM
Режим смешивания: Blu-ray
Кодек/ID: 128
Частота дискретизации: 48.0 KHz
Каналов: 6 channels
Битрейт: 4 608 Kbps
Битрейт/тип: Constant
Размер потока: 3.33 GiB (10%)
Глубина: 16 bits
:
Тип потока: Звук #3
Язык: Russian
Длительность: 01:43:34.141
Кодек: DTS
Кодек/описание: Digital Theater Systems
Кодек/ID: 130
Частота дискретизации: 48.0 KHz
Каналов: 6 channels
Битрейт: 755 Kbps
Битрейт/тип: Constant
Размер потока: 559 MiB (2%)
Глубина: 24 bits
Метод сжатия: Lossy
:
Тип потока: Звук #4
Язык: Russian
Длительность: 01:43:33.568
Кодек: AC-3
Кодек/описание: Audio Coding 3
Кодек/ID: 129
Частота дискретизации: 48.0 KHz
Каналов: 6 channels
Битрейт: 448 Kbps
Битрейт/тип: Constant
Размер потока: 332 MiB (1%)
Глубина: 16 bits
Метод сжатия: Lossy
:
Тип потока: Звук #5
Язык: Russian
Длительность: 01:43:33.696
Кодек: AC-3
Кодек/описание: Audio Coding 3
Кодек/ID: 129
Частота дискретизации: 48.0 KHz
Каналов: 6 channels
Битрейт: 448 Kbps
Битрейт/тип: Constant
Размер потока: 332 MiB (1%)
Глубина: 16 bits
Метод сжатия: Lossy
:
Тип потока: Звук #6
Язык: English
Длительность: 01:43:33.771
Кодек: DTS
Кодек/описание: Digital Theater Systems
Кодек/профиль: MA / Core
Режим смешивания: Stream extension
Кодек/ID: 134
Частота дискретизации: 48.0 KHz
Каналов: 8 channels / 6 channels
Битрейт: Unknown / 1 509 Kbps
Битрейт/тип: Variable
Глубина: 24 bits
Метод сжатия: Lossless / Lossy
:
Тип потока: Субтитры #1
Язык: Russian
Формат: PGS
:
Тип потока: Субтитры #2
Язык: English
Формат: PGS

pb.wtf



Скачать Перевозчик 3 через торрент http://pic.kartinco.top/images/6/3gfte.jpg Скачать фильм Перевозчик 3 через торрент бесплантно в хорошем качестве Описание: Фрэнк Мартин вынужден перевезти похищенную дочь главы "Агентства по охране окружающей среды" Валентину из Марселя через Штутгарт ... 10 10 4
Info! Золотая раздача, скачанное не засчитывается.
Торрент: Зарегистрирован [2014-08-03 19:53] · скачан: 5 раз
Статус: √ проверено
Размер: 34.26 GB
Как cкачать? Как скачать Перевозчик 3 через торрент | qTorrent

% Раздел Тема Автор DL S | L
Ultra HD (UHD: 2K, 4K, 8K) — видео сверхвысокой чёткости [ 55.46 GB ] Перевозчик 3 / Transporter 3 [2008 UHD BDRemux 2160p] 2xDUB +MVO +2xDVO+2xAVO+2xDUB [] bober100 Скачать
1 | 0
Фильмы [HD 720p, 1080p] (Хороший звук DUB, MVO) [ 7.33 GB ] Перевозчик 3 / Transporter 3 [2008 BDRip 1080p ] DUB [] bober100 Скачать
2 | 0
Фильмы 2006-2008 [ 1.45 GB ] Перевозчик 3 / The Transporter 3 [2008 BDRip ] Бумер Скачать
1 | 0
Фильмы [HD 720p, 1080p] (Хороший звук DUB, MVO) [ 7.94 GB ] Перевозчик 3 / The Transporter 3 [2008 BDRip 1080p ] Бумер Скачать
1 | 0
Сборники на DVD и Сиквелы [DVDrip, WEB-DLRip, HDrip, BDRip] [ 4.36 GB ] Перевозчик 123 Трилогия / Transporter 123 Trilogy [2002-2008 BDRip-AVC] Dub mihis Скачать
1 | 0
Фильмы [HD 720p, 1080p] (Хороший звук DUB, MVO) [ 6.56 GB ] Перевозчик 3 / Transporter 3 [2008 BDRip 720p DUB лицензия] Ke$h@ Скачать
1 | 0
Фильмы 2006-2008 [ 1.46 GB ] Перевозчик 3 / Transporter 3 [2008 DVDRip лицензия] ЕВГЕНИЙ ОЛЕГОВИЧ Скачать
1 | 0

28-11-2019 20:33  

Отключить всю рекламу на сайте

    Дорогой пользователь! Огромная просьба, поблагодарите релизера, оцените раздачу и оставьте свои комментарий, если Вы скачали Перевозчик 3 через торрент бесплатно! Внесите свою лепту в развитие PiratBit!
    Комментировать посты могут только пользователи прошедшие не сложную регистрацию
    Показать сообщения:    

    Перевозчик 3 через торрент
    Скачать бесплатно Перевозчик 3
    Перевозчик 3 скачать торрент
    Перевозчик 3 смотреть онлайн
    Cкачать фильм Перевозчик 3 бесплатно
    Перевозчик 3 скачать торрент в хорошем качестве
    Перевозчик 3 смотреть онлайн бесплатно в хорошем качестве


    Вы не можете начинать темы
    Вы не можете отвечать на сообщения
    Вы не можете редактировать свои сообщения
    Вы не можете удалять свои сообщения
    Вы не можете голосовать в опросах
    Вы не можете прикреплять файлы к сообщениям
    Вы можете скачивать файлы