Ссылка на приватное зеркало нашего сайта всего за 1$. Внимание количество ограничено!!!

2 сезон

iTunes

1 сезон

1

2 сезон

2 сезон

iTunes

1 сезон

RePack

30

Новинка

ВАЖНО

ИГРА 18+

pack

RePack

MK11
pack

Забери бонус

RePack

jed

!!Акция!!

Alien_Rage

RePack

fifa19

RePack

Assassins Creed: Odyssey

RePack

NEED FOR SPEED™ PAYBACK

4 сезон

9 сезон

Бесстыжие 9 сезон

Все сериалы

все сериалы на PB.wtf

RePack

FAR CRY 5
  

Молодые и голодные / Young & Hungr / Сезон: 1 / Серии 1-7 из 10 (Энди Кэдифф / Andy Cadiff, Фил Льюис / Phill Lewis, Робби Кантримэн / Robbie Countryman) [2014 , США, комедия, WEB-DLRip, MVO] [BaibaKo] pb.wtf

Молодые и голодные через торрент pb.wtf

Размер: 2.11 GB | Добавлен: 6 лет назад | Торрент скачан:15 раз
Скачать  

04-08-2014 01:00 Молодые и голодные Скачать торрент  

Молодые и голодные / Young & Hungr
«Believe in your selfie»


  • Год выпуска: 2014

  • Страна: США
  • Жанр: комедия
  • Продолжительность: 00:23:26(Серия)
  • Перевод: Профессиональный многоголосый закадровый [BaibaKo]

  • Режиссер: Энди Кэдифф / Andy Cadiff, Фил Льюис / Phill Lewis, Робби Кантримэн / Robbie Countryman
  • В ролях:

    Эмили Осмент (Gabi Diamond), Джонатан Садовский (Josh Kaminski), Эйми Карреро (Sofia Rodriguez), Рекс Ли (Elliot Park), Ким Уитли (Yolanda), Мэллори Джэнсен (Caroline Huntington), Джесси МакКартни (Cooper), Шон Парих (Amir), Ник Ру (Cam), Эшли Тисдейл (Logan Rawlings), Джессика Лаундес (Judy Green), Мишель Мередит (Noreen)

  • Описание:
    Амбициозности и уверенности в себе, а также чувства юмора и энергичности у Габи предостаточно. Пока она всего лишь блогер, пишущий о еде, но она не намерена останавливаться на достигнутом. Ее мечта — доказать всем и самой себе, что быть профессиональным кулинаром — проще простого и ей это по плечу. И вот однажды у нее появляется шанс проявить все свои поварские таланты. Предприниматель Джош нанимает Габи на должность личного шеф-повара. Для начала героине сериала «Молодые и голодные» нужно приготовить романтический ужин.
  • Рейтинг:



  • Качество: WEB-DLRip
  • Формат: :MPEG-4
  • Видео кодек: AVC
  • Аудио кодек: AAC LC
  • Видео: 720x400 (16:9), 1536 kbps, 23,976 fps, 0,222 bpp
  • Аудио №1: русский / 2.0 / 48 kHz / 192 kbps
  • Аудио №2: английский / 2.0 / 48 kHz / 192 kbps
  • Релиз от: GEKADOL

    Код:

    Внимание! Раздача ведётся путём добавления новых серий; при каждом добавлении создаётся новый торрент. Чтобы начать докачку новой серии, пользователям необходимо сделать следующее:
    (1) остановить скачивание,
    (2) удалить старый торрент у себя из клиента (старые серии удалять не надо),
    (3) скачать новый торрент и запустить его у себя в клиенте вместо старого, при этом указать клиенту путь в старую папку куда и должно происходить скачивание новых серий.
    Ваш клиент при этом должен произвести хеширование (проверку) старой папки (если не производит сам - помогите ему сделать это), и будет докачивать только те серии которых у вас ещё нет. Старые серии при этом не удаляются, а продолжают раздаваться!
    Eсли вы уже удалили старые серии, то предотвратить повторную закачку старых серий можно, отжав галочку в соответсвующих местах при запуске нового торрента. По возможности, желательно не удалять старые серии как можно дольше чтобы релизёр не столько продолжал раздавать старые серии, а смог сконцентрироваться на новых.


    Код:

    General
    Complete name                            : G:\Молодые и голодные2014\Young.and.Hungry.s01e01.WEB-DLRip.x264.Rus-Eng.BaibaKo.tv.mp4
    Format                                   : MPEG-4
    Format profile                           : Base Media
    Codec ID                                 : isom
    File size                                : 322 MiB
    Duration                                 : 23mn 26s
    Overall bit rate mode                    : Variable
    Overall bit rate                         : 1 920 Kbps
    Encoded date                             : UTC 2014-08-03 15:30:10
    Tagged date                              : UTC 2014-08-03 15:30:10

    Video
    ID                                       : 1
    Format                                   : AVC
    Format/Info                              : Advanced Video Codec
    Format profile                           : Baseline@L3.0
    Format settings, CABAC                   : No
    Format settings, ReFrames                : 3 frames
    Codec ID                                 : avc1
    Codec ID/Info                            : Advanced Video Coding
    Duration                                 : 23mn 26s
    Bit rate                                 : 1 536 Kbps
    Maximum bit rate                         : 5 579 Kbps
    Width                                    : 720 pixels
    Height                                   : 400 pixels
    Display aspect ratio                     : 16:9
    Frame rate mode                          : Variable
    Frame rate                               : 23.976 fps
    Minimum frame rate                       : 23.974 fps
    Maximum frame rate                       : 23.981 fps
    Color space                              : YUV
    Chroma subsampling                       : 4:2:0
    Bit depth                                : 8 bits
    Scan type                                : Progressive
    Bits/(Pixel*Frame)                       : 0.222
    Stream size                              : 258 MiB (80%)
    Writing library                          : x264 core 130 r2273 b3065e6
    Encoding settings                        : cabac=0 / ref=3 / deblock=1:0:0 / analyse=0x1:0x111 / me=hex / subme=7 / psy=1 / psy_rd=1.00:0.00 / mixed_ref=1 / me_range=16 / chroma_me=1 / trellis=1 / 8x8dct=0 / cqm=0 / deadzone=21,11 / fast_pskip=1 / chroma_qp_offset=-2 / threads=12 / lookahead_threads=2 / sliced_threads=0 / nr=0 / decimate=1 / interlaced=0 / bluray_compat=0 / constrained_intra=0 / bframes=0 / weightp=0 / keyint=240 / keyint_min=24 / scenecut=40 / intra_refresh=0 / rc_lookahead=40 / rc=2pass / mbtree=1 / bitrate=1536 / ratetol=1.0 / qcomp=0.60 / qpmin=0 / qpmax=69 / qpstep=4 / cplxblur=20.0 / qblur=0.5 / ip_ratio=1.40 / aq=1:1.00
    Encoded date                             : UTC 2014-07-31 16:07:31
    Tagged date                              : UTC 2014-08-03 15:30:20
    Color primaries                          : BT.709-5, BT.1361, IEC 61966-2-4, SMPTE RP177
    Transfer characteristics                 : BT.709-5, BT.1361
    Matrix coefficients                      : BT.709-5, BT.1361, IEC 61966-2-4 709, SMPTE RP177

    Audio #1
    ID                                       : 2
    Format                                   : AAC
    Format/Info                              : Advanced Audio Codec
    Format profile                           : LC
    Codec ID                                 : 67
    Duration                                 : 23mn 26s
    Bit rate mode                            : Variable
    Bit rate                                 : 192 Kbps
    Maximum bit rate                         : 196 Kbps
    Channel(s)                               : 2 channels
    Channel positions                        : Front: L R
    Sampling rate                            : 48.0 KHz
    Compression mode                         : Lossy
    Stream size                              : 31.8 MiB (10%)
    Language                                 : Russian
    Encoded date                             : UTC 2014-08-03 15:30:15
    Tagged date                              : UTC 2014-08-03 15:30:20

    Audio #2
    ID                                       : 3
    Format                                   : AAC
    Format/Info                              : Advanced Audio Codec
    Format profile                           : LC
    Codec ID                                 : 67
    Duration                                 : 23mn 26s
    Bit rate mode                            : Variable
    Bit rate                                 : 192 Kbps
    Maximum bit rate                         : 197 Kbps
    Channel(s)                               : 2 channels
    Channel positions                        : Front: L R
    Sampling rate                            : 48.0 KHz
    Compression mode                         : Lossy
    Stream size                              : 31.8 MiB (10%)
    Language                                 : English
    Encoded date                             : UTC 2014-08-03 15:30:17
    Tagged date                              : UTC 2014-08-03 15:30:20


    Скриншоты:


    Раздача ведётся путём добавления новых серий. Добавлена 7 серия (05.11.2014).Просьба перекачать торрент файл.

    pb.wtf



  • Скачать Молодые и голодные через торрент http://i68.fastpic.ru/big/2014/0804/d7/1e6e89caf6834728e6441c31678865d7.jpg Скачать фильм Молодые и голодные через торрент бесплантно в хорошем качестве Описание: Амбициозности и уверенности в себе, а также чувства юмора и энергичности у Габи предостаточно. Пока она всего лишь блогер, ... 8.8 10 4
    Торрент: Зарегистрирован [2014-11-05 15:42] · скачан: 15 раз
    Статус: √ проверено
    Размер: 2.11 GB
    Как cкачать? Как скачать Молодые и голодные через торрент | qTorrent



    Последний раз редактировалось: GEKADOL (2014-11-05 15:42), всего редактировалось 2 раз(а)

    28-11-2019 20:33  

    Отключить всю рекламу на сайте

    17-09-2014 12:24 Молодые и голодные Скачать торрент  

    Кто нибудь смотрел? Как сериал??pb.wtf



    05-11-2014 16:39 Молодые и голодные Скачать торрент  

    это БАФФИ!!! pb.wtf



    05-11-2014 17:28 Молодые и голодные Скачать торрент  

    На разок ! Отключаем мозги и отдыхаем. Актёры играют не плохо, смотреть можно.pb.wtf



      Дорогой пользователь! Огромная просьба, поблагодарите релизера, оцените раздачу и оставьте свои комментарий, если Вы скачали Молодые и голодные через торрент бесплатно! Внесите свою лепту в развитие PiratBit!
      Комментировать посты могут только пользователи прошедшие не сложную регистрацию
      Показать сообщения:    

      Молодые и голодные через торрент
      Скачать бесплатно Молодые и голодные
      Молодые и голодные скачать торрент
      Молодые и голодные смотреть онлайн
      Cкачать фильм Молодые и голодные бесплатно
      Молодые и голодные скачать торрент в хорошем качестве
      Молодые и голодные смотреть онлайн бесплатно в хорошем качестве


      Вы не можете начинать темы
      Вы не можете отвечать на сообщения
      Вы не можете редактировать свои сообщения
      Вы не можете удалять свои сообщения
      Вы не можете голосовать в опросах
      Вы не можете прикреплять файлы к сообщениям
      Вы можете скачивать файлы