2 сезон

iTunes

MVO

1

2 сезон

iTunes

iTunes

1 сезон

RePack

30

Новинка

ВАЖНО

ИГРА 18+

pack

RePack

MK11
pack

Легкие деньги

RePack

jed

RePack

fifa19

RePack

RDR2

RePack

NEED FOR SPEED™ PAYBACK

4 сезон

9 сезон

Бесстыжие 9 сезон

Все сериалы

все сериалы на PB.wtf

RePack

FAR CRY 5

Anonymous, добрый вечер, мы не успеваем собрать деньги на оплату серверов за декабрь и январь, помогите нам пожалуйста в это трудное время. В качестве благодарности мы отключим Вам всю рекламу на сайте (укажите свой ник в строку Ваше имя)!

×
  
Magnet ссылка

Трон: Наследие / TRON: Legacy (Джозеф Косински) [2010 г., фантастика, боевик, приключения, BDRip 720p, Дубляж, Лицензия] 60 fps pb.wtf

Трон: Наследие через торрент pb.wtf

Размер: 7.11 GB | Добавлен: 6 лет 5 мес. назад | Торрент скачан:408 раз
Скачать  

04-08-2014 06:01 Трон: Наследие Скачать торрент  

Трон: Наследие / TRON: Legacy Год выпуска: 2010
Страна: США
Жанр: фантастика, боевик, приключения
Продолжительность: 02:05:09




Перевод: Дубляж, Лицензия
Субтитры: Russian, English




Режиссер: Джозеф Косински









В ролях: Джефф Бриджес, Гаррет Хедлунд, Оливия Уайлд, Брюс Бокслайтнер, Джеймс Фрейн, Бо Гарретт, Майкл Шин, Серинда Свон, Йайа ДаКоста, Элизабет Мэтис.




Описание: Сэм Флинн, технически одарённый 27-летний сын Кевина Флинна, начинает расследовать исчезновение своего отца и оказывается втянутым в тот же мир жестоких программ и гладиаторских игр, в котором его отец жил на протяжении 20 лет. Вместе с помощницей Кевина отец и сын пускаются в рискованное путешествие за жизнью по поражающей взгляд кибер-вселенной, которая стала ещё более совершенной и чрезвычайно опасной.




Качество: BDRip 720p
Формат: MKV
Видео кодек: AVC
Аудио кодек: AC3
Видео: AVC, 1280x720 (16/9), 59.940 fps, 6 688 Kbps
Аудио: AC-3, 48.0 KHz, 6 ch, 640 Kbps, CBR (Дубляж)
Аудио: AC-3, 48.0 KHz, 6 ch, 640 Kbps, CBR (Оригинал)




Автор рипа: Tiberiumsun69




скриншот   скриншот   скриншот  

скриншот   скриншот  

скриншот  
General
Unique ID : 237054578066211277116726762993568177021 (0xB2570D10A43C29B0B02263F952F7DB7D)
Complete name : D:\Моя музыка\Трон 2 720p 60fps.mkv
Format : Matroska
Format version : Version 4 / Version 2
File size : 7.11 GiB
Duration : 2h 5mn
Overall bit rate : 8 133 Kbps
Encoded date : UTC 2014-07-05 06:01:58
Writing application : mkvmerge v7.0.0 ('Where We Going') 64bit built on Jun 9 2014 15:16:27
Writing library : libebml v1.3.0 + libmatroska v1.4.1
DURATION : 02:05:08.704000000
NUMBER_OF_FRAMES : 234647
NUMBER_OF_BYTES : 600696320
_STATISTICS_WRITING_APP : mkvmerge v7.0.0 ('Where We Going') 64bit built on Jun 9 2014 15:16:27
_STATISTICS_WRITING_DATE_UTC : 2014-07-05 06:01:58
_STATISTICS_TAGS : BPS DURATION NUMBER_OF_FRAMES NUMBER_OF_BYTES

Video
ID : 1
Format : AVC
Format/Info : Advanced Video Codec
Format profile : High@L4.1
Format settings, CABAC : Yes
Format settings, ReFrames : 9 frames
Codec ID : V_MPEG4/ISO/AVC
Duration : 2h 5mn
Bit rate : 6 691 Kbps
Width : 1 280 pixels
Height : 720 pixels
Display aspect ratio : 16:9
Frame rate mode : Constant
Frame rate : 59.880 fps
Original frame rate : 59.940 fps
Color space : YUV
Chroma subsampling : 4:2:0
Bit depth : 8 bits
Scan type : Progressive
Bits/(Pixel*Frame) : 0.121
Stream size : 5.85 GiB (82%)
Writing library : x264 core 130 r2273 b3065e6
Encoding settings : cabac=1 / ref=9 / deblock=1:-2:-2 / analyse=0x3:0 / me=umh / subme=9 / psy=1 / psy_rd=1.00:0.10 / mixed_ref=1 / me_range=24 / chroma_me=0 / trellis=1 / 8x8dct=1 / cqm=0 / deadzone=21,11 / fast_pskip=0 / chroma_qp_offset=-3 / threads=12 / lookahead_threads=1 / sliced_threads=0 / nr=0 / decimate=0 / interlaced=0 / bluray_compat=0 / constrained_intra=0 / bframes=6 / b_pyramid=2 / b_adapt=2 / b_bias=0 / direct=1 / weightb=1 / open_gop=0 / weightp=2 / keyint=599 / keyint_min=59 / scenecut=40 / intra_refresh=0 / rc=crf / mbtree=0 / crf=16.0 / qcomp=0.60 / qpmin=0 / qpmax=69 / qpstep=4 / ip_ratio=1.40 / pb_ratio=1.30 / aq=1:0.90
Language : English
Default : Yes
Forced : No
DURATION : 02:05:08.559000000
NUMBER_OF_FRAMES : 450063
NUMBER_OF_BYTES : 6427695858
_STATISTICS_WRITING_APP : mkvmerge v7.0.0 ('Where We Going') 64bit built on Jun 9 2014 15:16:27
_STATISTICS_WRITING_DATE_UTC : 2014-07-05 06:01:58
_STATISTICS_TAGS : BPS DURATION NUMBER_OF_FRAMES NUMBER_OF_BYTES

Audio #1
ID : 2
Format : AC-3
Format/Info : Audio Coding 3
Mode extension : CM (complete main)
Format settings, Endianness : Big
Codec ID : A_AC3
Duration : 2h 5mn
Bit rate mode : Constant
Bit rate : 640 Kbps
Channel(s) : 6 channels
Channel positions : Front: L C R, Side: L R, LFE
Sampling rate : 48.0 KHz
Bit depth : 16 bits
Compression mode : Lossy
Stream size : 573 MiB (8%)
Title : Dub
Language : Russian
Default : Yes
Forced : No

Audio #2
ID : 6
Format : AC-3
Format/Info : Audio Coding 3
Mode extension : CM (complete main)
Format settings, Endianness : Big
Codec ID : A_AC3
Duration : 2h 5mn
Bit rate mode : Constant
Bit rate : 640 Kbps
Channel(s) : 6 channels
Channel positions : Front: L C R, Side: L R, LFE
Sampling rate : 48.0 KHz
Bit depth : 16 bits
Compression mode : Lossy
Stream size : 573 MiB (8%)
Title : Original
Language : English
Default : No
Forced : No

Text #1
ID : 3
Format : UTF-8
Codec ID : S_TEXT/UTF8
Codec ID/Info : UTF-8 Plain Text
Title : Forced
Language : Russian
Default : Yes
Forced : No

Text #2
ID : 4
Format : UTF-8
Codec ID : S_TEXT/UTF8
Codec ID/Info : UTF-8 Plain Text
Title : Full
Language : Russian
Default : No
Forced : No

Text #3
ID : 5
Format : UTF-8
Codec ID : S_TEXT/UTF8
Codec ID/Info : UTF-8 Plain Text
Title : Full
Language : English
Default : No
Forced : No

Menu
00:00:00.000 : en:The Same Team / Одна команда
00:04:07.163 : en:All Grown Up / Все взрослеют
00:14:44.133 : en:A Visit from a Friend / Визит друга
00:23:15.602 : en:The Grid / Система
00:26:52.694 : en:Games / Игры
00:36:12.211 : en:Not Your Father / Я не твой отец
00:38:35.980 : en:Lightcycle Battle / Битва на светоциклах
00:46:52.726 : en:The Real Kevin Flynn / Настояший Кевин Флинн
00:53:03.763 : en:Father's Wisdom / Отцовская мудрость
01:04:54.181 : en:Castor / Кастор
01:13:47.422 : en:Zuse / Зюс
01:19:00.944 : en:She's An ISO / Она – изоморф!
01:22:40.455 : en:Catching Up / Погоня
01:25:50.895 : en:A Deal / Сделка
01:28:11.828 : en:A Rescue / Спасение
01:31:42.413 : en:Building An Army / Создание армии
01:43:13.061 : en:Air Battle / Битва в воздухе
01:48:18.033 : en:Flynn's Sacrifice / Жертва Флинна
01:54:48.381 : en:You Were Right / Ты был прав
01:58:03.659 : en:End Credits / Финальные титры
pb.wtf



Скачать Трон: Наследие через торрент http://i68.fastpic.ru/big/2014/0804/83/631d7970cba6bbe0aa5069a2ba383483.png Скачать фильм Трон: Наследие через торрент бесплантно в хорошем качестве Описание: Сэм Флинн, технически одарённый 27-летний сын Кевина Флинна, начинает расследовать исчезновение своего отца и оказывается ... 10 10 25
Info! Золотая раздача, скачанное не засчитывается.
Торрент: Зарегистрирован [2014-08-04 06:01] · скачан: 408 раз
Статус: √ проверено
Размер: 7.11 GB
Как cкачать? Как скачать Трон: Наследие через торрент | UTorrent



Последний раз редактировалось: -=DANTE=- (2014-08-04 11:54), всего редактировалось 2 раз(а)

28-11-2019 20:33  

Отключить всю рекламу на сайте

04-08-2014 06:35 Трон: Наследие Скачать торрент  

ты надоел уже со своими 60fpspb.wtf
!shuller писал(а):

Не нравится - проходим мимо! В следующий раз за подобный комментарий активирую режим "read only"



04-08-2014 07:55 Трон: Наследие Скачать торрент  

alanbeslekoev писал(а):

ты надоел уже со своими 60fps

а как по мне, наоборот отлично. автору 5+pb.wtf



05-08-2014 22:05 Трон: Наследие Скачать торрент  

rstmanso писал(а):

alanbeslekoev писал(а):

ты надоел уже со своими 60fps

а как по мне, наоборот отлично. автору 5+

поддерживаю! такое качество стоит смотретьpb.wtf



17-08-2014 20:25 Трон: Наследие Скачать торрент  

60 fps стоят того, чтобы пересмотреть любимый фильм в 4ый раз :)pb.wtf



21-09-2015 01:01 Трон: Наследие Скачать торрент  

Такой бред а не фильм, полная чушь - не рекомендую это смотретьpb.wtf



03-04-2016 23:16 Трон: Наследие Скачать торрент  

Один из любимых фильмов. 2010-й год (точнее практически 2011-й на дворе), пошёл в кино, всё очень понравилось: музыка, сюжет, атмосфера, персонажи, выдержанный до последней капли стиль и визуал. Прекрасная режиссёрская работа - отдельно пожелаю Джозефу Косински огромных успехов, он удивительный новатор. Качество рипа превосходное, сложно представить, можно ли сделать ещё лучше, идеальное сочетание плавности, картинки и Imax вставок самого Tron: Legacy. Большое спасибо автору Tiberiumsun69, в том числе и за постоянную оригинальную дорожку в релизах, это очень важно.pb.wtf



23-12-2018 04:47 Трон: Наследие Скачать торрент  

:opb.wtf



    Дорогой пользователь! Огромная просьба, поблагодарите релизера, оцените раздачу и оставьте свои комментарий, если Вы скачали Трон: Наследие через торрент бесплатно! Внесите свою лепту в развитие PiratBit!
    Комментировать посты могут только пользователи прошедшие не сложную регистрацию
    Показать сообщения:    

    Трон: Наследие через торрент
    Скачать бесплатно Трон: Наследие
    Трон: Наследие скачать торрент
    Трон: Наследие смотреть онлайн
    Cкачать фильм Трон: Наследие бесплатно
    Трон: Наследие скачать торрент в хорошем качестве
    Трон: Наследие смотреть онлайн бесплатно в хорошем качестве


    Вы не можете начинать темы
    Вы не можете отвечать на сообщения
    Вы не можете редактировать свои сообщения
    Вы не можете удалять свои сообщения
    Вы не можете голосовать в опросах
    Вы не можете прикреплять файлы к сообщениям
    Вы можете скачивать файлы