Ссылка на приватное зеркало нашего сайта всего за 1$. Внимание количество ограничено!!!

2 сезон

iTunes

1 сезон

1

2 сезон

2 сезон

iTunes

1 сезон

RePack

30

Новинка

ВАЖНО

ИГРА 18+

pack

RePack

MK11
pack

Забери бонус

RePack

jed

!!Акция!!

Alien_Rage

RePack

fifa19

RePack

Assassins Creed: Odyssey

RePack

NEED FOR SPEED™ PAYBACK

4 сезон

9 сезон

Бесстыжие 9 сезон

Все сериалы

все сериалы на PB.wtf

RePack

FAR CRY 5
  

Чужестранка / Outlander / Сезон: 1 / Серии 1-16 из 16 (Анна Ферстер / Anna Foerster, Ричард Кларк / Richard Clark, Брайан Келли / Brian Kelly) [2014, США, фантастика, драма, мелодрама, HDTV(WEB-DL)720p] MVO [BaibaKo] pb.wtf

Чужестранка через торрент pb.wtf

Размер: 27.42 GB | Добавлен: 5 лет 6 мес. назад | Торрент скачан:313 раз
Скачать  

04-08-2014 07:30 Чужестранка Скачать торрент  

Чужестранка / Outlander
«Что если твое будущее было прошлым?»


  • Год выпуска: 2014
  • Страна: США
  • Жанр: фантастика, драма, мелодрама
  • Продолжительность: 01:03:31 (Серия)
  • Перевод: Профессиональный многоголосый закадровый [BaibaKo]

  • Режиссер: Анна Ферстер / Anna Foerster, Ричард Кларк / Richard Clark, Брайан Келли / Brian Kelly
  • В ролях:

    Джон Хеффернан (Brigadier General Lord Oliver Thomas), Нелл Хадсон (Laoghaire Mackenzie), Каитриона Бэлфи (Claire Randall), Сэм Юэн (Jamie Fraser), Дункан Лакруа (Murtagh Fitzgibbons Fraser), Гари Льюис (Colum MacKenzie), Грэм МакТавиш (Dougal MacKenzie), Лотте Вербеек (Geillis Duncan), Каллум Митчелл (Castle Keep), Трэйси Уилкинсон (Mrs. Graham), Стивен Кри (Ian Murray), Николас Аарон (Arnold)

  • Описание:
    Клэр, работавшая медсестрой во время Второй мировой войны, случайно перемещается во времени и попадает в 1743 год. В этом мире, полном приключений, она знакомится с шотландским рыцарем Джейми. У героев завязывается страстный роман, несмотря на то, что сердце Клэр разрывается между двумя мужчинами - Джейми и ее мужем Фрэнком, который остался в другом времени.
  • Рейтинг:



  • Качество: HDTV(WEB-DL)720p
  • Формат: :MKV
  • Видео кодек: AVC
  • Аудио кодек: AC3
  • Видео: VC High@L3.1 3920 Кбит/сек 1280х718 (1.781) 23.976 кадр/сек
  • Аудио №1: русский / 5.1 / 48 kHz / 384 kbps / 16 bit
  • Аудио №2: английский / 5.1 / 48 kHz / 384 kbps / 16 bit
  • Релиз от: GEKADOL

    Код:

    Внимание! Раздача ведётся путём добавления новых серий; при каждом добавлении создаётся новый торрент. Чтобы начать докачку новой серии, пользователям необходимо сделать следующее:
    (1) остановить скачивание,
    (2) удалить старый торрент у себя из клиента (старые серии удалять не надо),
    (3) скачать новый торрент и запустить его у себя в клиенте вместо старого, при этом указать клиенту путь в старую папку куда и должно происходить скачивание новых серий.
    Ваш клиент при этом должен произвести хеширование (проверку) старой папки (если не производит сам - помогите ему сделать это), и будет докачивать только те серии которых у вас ещё нет. Старые серии при этом не удаляются, а продолжают раздаваться!
    Eсли вы уже удалили старые серии, то предотвратить повторную закачку старых серий можно, отжав галочку в соответсвующих местах при запуске нового торрента. По возможности, желательно не удалять старые серии как можно дольше чтобы релизёр не столько продолжал раздавать старые серии, а смог сконцентрироваться на новых.


    Код:

    General
    Unique ID                                : 188055626769197428352547710237218024493 (0x8D7A323F70DC470DA839A8EDBB39AC2D)
    Complete name                            : G:\Чужестранка(Сезон 1)2014_720\Outlander.s01e01.HDTV720p.Rus.Eng.BaibaKo.tv.mkv
    Format                                   : Matroska
    Format version                           : Version 4 / Version 2
    File size                                : 1.95 GiB
    Duration                                 : 1h 3mn
    Overall bit rate                         : 4 393 Kbps
    Encoded date                             : UTC 2014-08-04 03:42:25
    Writing application                      : mkvmerge v6.7.0 ('Back to the Ground') 64bit built on Jan  8 2014 15:10:52
    Writing library                          : libebml v1.3.0 + libmatroska v1.4.1

    Video
    ID                                       : 1
    Format                                   : AVC
    Format/Info                              : Advanced Video Codec
    Format profile                           : High@L4.1
    Format settings, CABAC                   : Yes
    Format settings, ReFrames                : 5 frames
    Codec ID                                 : V_MPEG4/ISO/AVC
    Duration                                 : 1h 3mn
    Bit rate                                 : 3 537 Kbps
    Width                                    : 1 280 pixels
    Height                                   : 720 pixels
    Display aspect ratio                     : 16:9
    Frame rate                               : 23.976 fps
    Color space                              : YUV
    Chroma subsampling                       : 4:2:0
    Bit depth                                : 8 bits
    Scan type                                : Progressive
    Bits/(Pixel*Frame)                       : 0.160
    Stream size                              : 1.57 GiB (81%)
    Writing library                          : x264 core 142 r2453 ea0ca51
    Encoding settings                        : cabac=1 / ref=5 / deblock=1:0:0 / analyse=0x3:0x113 / me=umh / subme=8 / psy=1 / psy_rd=1.00:0.00 / mixed_ref=1 / me_range=16 / chroma_me=1 / trellis=1 / 8x8dct=1 / cqm=0 / deadzone=21,11 / fast_pskip=1 / chroma_qp_offset=-2 / threads=6 / lookahead_threads=1 / sliced_threads=0 / nr=0 / decimate=1 / interlaced=0 / bluray_compat=0 / constrained_intra=0 / bframes=3 / b_pyramid=2 / b_adapt=2 / b_bias=0 / direct=3 / weightb=1 / open_gop=0 / weightp=2 / keyint=250 / keyint_min=23 / scenecut=40 / intra_refresh=0 / rc_lookahead=50 / rc=crf / mbtree=1 / crf=18.0 / qcomp=0.60 / qpmin=0 / qpmax=69 / qpstep=4 / ip_ratio=1.40 / aq=1:1.00
    Language                                 : English
    Default                                  : Yes
    Forced                                   : No
    Matrix coefficients                      : BT.709-5, BT.1361, IEC 61966-2-4 709, SMPTE RP177

    Audio #1
    ID                                       : 2
    Format                                   : AC-3
    Format/Info                              : Audio Coding 3
    Mode extension                           : CM (complete main)
    Codec ID                                 : A_AC3
    Duration                                 : 1h 3mn
    Bit rate mode                            : Constant
    Bit rate                                 : 384 Kbps
    Channel(s)                               : 6 channels
    Channel positions                        : Front: L C R, Side: L R, LFE
    Sampling rate                            : 48.0 KHz
    Bit depth                                : 16 bits
    Compression mode                         : Lossy
    Stream size                              : 174 MiB (9%)
    Language                                 : Russian
    Default                                  : Yes
    Forced                                   : No

    Audio #2
    ID                                       : 3
    Format                                   : AC-3
    Format/Info                              : Audio Coding 3
    Mode extension                           : CM (complete main)
    Codec ID                                 : A_AC3
    Duration                                 : 1h 3mn
    Bit rate mode                            : Constant
    Bit rate                                 : 384 Kbps
    Channel(s)                               : 6 channels
    Channel positions                        : Front: L C R, Side: L R, LFE
    Sampling rate                            : 48.0 KHz
    Bit depth                                : 16 bits
    Compression mode                         : Lossy
    Stream size                              : 174 MiB (9%)
    Language                                 : English
    Default                                  : No
    Forced                                   : No


    Скриншоты:


    Раздача ведётся путём добавления новых серий. Добавлена 16 серия (02.06.2015).Просьба перекачать торрент файл.

    pb.wtf



  • Скачать Чужестранка через торрент http://pic1.kartinco.top/images/10/pzyq1.jpg Скачать фильм Чужестранка через торрент бесплантно в хорошем качестве Описание: Клэр, работавшая медсестрой во время Второй мировой войны, случайно перемещается во времени и попадает в 1743 год. В этом мире, ... 9.4 10 62
    Info! Золотая раздача, скачанное не засчитывается.
    Торрент: Зарегистрирован [2015-06-02 02:14] · скачан: 313 раз
    Статус: √ проверено
    Размер: 27.42 GB
    Как cкачать? Как скачать Чужестранка через торрент | qTorrent

    % Раздел Тема Автор DL S | L
    Зарубежные сериалы [ 117.66 GB ] Чужестранка / Outlander / Сезон: 5 / Серии: 1-12 из 12 [2020 UHD WEB-DL 2160p ] MVO [NewStudio] bober100 Скачать
    1 | 0
    Зарубежные сериалы [ 36.8 GB ] Чужестранка / Outlander / Сезон: 1 / Серии: 1-16 из 16 [2014-2015 WEB-DL 1080p] MVO [NewStudio] bober100 Скачать
    2 | 0


    Последний раз редактировалось: GEKADOL (2015-06-02 02:14), всего редактировалось 16 раз(а)

    28-11-2019 20:33  

    Отключить всю рекламу на сайте

    19-08-2014 18:38 Чужестранка Скачать торрент  

    кстати неплохо и снят да и посмотреть можно
    ждём продолжениеpb.wtf



    03-10-2014 19:04 Чужестранка Скачать торрент  

    сериал втягивает, очень неплохо.pb.wtf



    04-10-2014 18:03 Чужестранка Скачать торрент  

    Сериал очень красивый, актёры суперские, втягивает не то слово)) а главное исторический) и немножко фантастики)
    Жду 9-ой серии с нетерпением))!pb.wtf



    05-10-2014 11:43 Чужестранка Скачать торрент  

    и вроде ничего вплетения истории для перехода в прошлое -а нет не взяло скучно и предсказуемоpb.wtf



    13-10-2014 16:06 Чужестранка Скачать торрент  

    а по мне так это сюжет сериала "Континуум"pb.wtf



    20-10-2014 16:23 Чужестранка Скачать торрент  

    когда 9 серия?pb.wtf



    23-10-2014 18:38 Чужестранка Скачать торрент  

    Сериал хороший,вот только продолжение в 2015 году(((pb.wtf



    30-10-2014 15:52 Чужестранка Скачать торрент  

    Хороший сериалpb.wtf



    03-11-2014 12:03 Чужестранка Скачать торрент  

    оформления поправьpb.wtf



    25-11-2014 15:56 Чужестранка Скачать торрент  

    бред я убераю все галки а 1фиг качается как на все серии и не запускает ибо весит 12гpb.wtf



    07-04-2015 18:57 Чужестранка Скачать торрент  

    О боги! 9я серия!!! Я дождаласьсчастьетокакое :omg: :dancee:

    Спасибооооооооо! pb.wtf



    08-04-2015 05:59 Чужестранка Скачать торрент  

    Akirewen писал(а):

    О боги! 9я серия!!! Я дождаласьсчастьетокакое :omg: :dancee:

    Спасибооооооооо!

    Вам спасибо за спасибо и за терпение) pb.wtf



    23-08-2015 10:22 Чужестранка Скачать торрент  

    спасибо! не ожидал - смотрится на одном дыхании,ждем продолжения.pb.wtf



      Дорогой пользователь! Огромная просьба, поблагодарите релизера, оцените раздачу и оставьте свои комментарий, если Вы скачали Чужестранка через торрент бесплатно! Внесите свою лепту в развитие PiratBit!
      Комментировать посты могут только пользователи прошедшие не сложную регистрацию
      Показать сообщения:    

      Чужестранка через торрент
      Скачать бесплатно Чужестранка
      Чужестранка скачать торрент
      Чужестранка смотреть онлайн
      Cкачать фильм Чужестранка бесплатно
      Чужестранка скачать торрент в хорошем качестве
      Чужестранка смотреть онлайн бесплатно в хорошем качестве


      Вы не можете начинать темы
      Вы не можете отвечать на сообщения
      Вы не можете редактировать свои сообщения
      Вы не можете удалять свои сообщения
      Вы не можете голосовать в опросах
      Вы не можете прикреплять файлы к сообщениям
      Вы можете скачивать файлы