Всегда рабочее зеркало без VPN и Proxy просто перед .vidak.icu напиши любое слово или цифру, Пример http://98bk.vidak.icu

Лицензия

MVO

1 сезон

1

1 сезон

iTunes

1 сезон

13

1 сезон

Deluxe

pack

Рекомендуем

Repack

30

ВАЖНО

RePack

MK11

RePack

jed

RePack

fifa19

RePack

RDR2

RePack

NEED FOR SPEED™ PAYBACK

Кинопоиск HD

6 сезон

 Острые козырьки 6 сезон

Все сериалы

все сериалы на PB.wtf

RePack

FAR CRY 5
  
Magnet ссылка

Лок / Locke (Стивен Найт / Steven Knight) [2013, триллер, BDRip 1080p, MVO (2) / Baibako / Гараж Дубляж+ VO [R.A.I.M] от R.G. HD-Films pb.wtf

Лок через торрент pb.wtf

Размер: 9.15 GB | Добавлен: 8 лет назад | Торрент скачан:389 раз
Смотреть онлайн Лок | Скачать    Ребята, помогите собрать деньги на оплату серверов!!!

04-08-2014 12:50 Лок Скачать торрент  

Лок / Locke
«Обратного пути нет»

Год выпуска: 2013
Страна: Великобритания, США
Жанр:триллер, драма
Продолжительность:01:24:49
Перевод: Профессиональный многоголосый (Baibako)+MVO[Гараж Дубляж] + [R.A.I.M]
Субтитры: Русские
Режиссер:Стивен Найт / Steven Knight

  • В ролях:

    Том Харди (Ivan Locke), Оливия Колман (Bethan / озвучка), Рут Уилсон (Katrina / озвучка), Эндрю Скотт (Donal / озвучка), Бен Дэниелс (Gareth / озвучка), Том Холлэнд (Eddie / озвучка), Билл Милнер (Sean / озвучка), Дэниэл Уэбб (Cassidy / озвучка), Элис Лоу (Sister Margaret / озвучка), Сайлас Карсон (Dr. Gullu / озвучка), Ли Росс (PC Davids / озвучка), Кирсти Диллон (Gareth's Wife / озвучка)

  • Описание:
    Иван Лок живет размеренной жизнью и очень много работает, чтобы добиться успеха. Завтрашний день - один из важнейших в его жизни, его ждет карьерный рост. Но вечером раздается телефонный звонок, который перевернет его жизнь с ног на голову. Теперь, чтобы выжить, ему предстоит выиграть схватку со временем. У него есть всего 90 минут.

  • Мировая премьера:2 сентября 2013


      Качество: BDRip 1080p
      Формат:MKV
      Видео кодек: AVC
      Аудио кодек:AC3, DTS
      Видео: 1920x800 (2.40:1), 9557 kbps, 23,976 fps
      Аудио #1: AC-3, 48.0 KHz, 6 ch, 384 Kbps, CBR (Russian) MVO | Baibako
      Аудио #2: AC-3, 48.0 KHz, 6 ch, 448 Kbps, CBR (Russian) MVO [Гараж Дубляж]
      Аудио #3: DTS, 48.0 KHz, 6 ch, 1 510 Kbps, VBR (Russian) MVO [Гараж Дубляж]
      Аудио #4: AC-3, 48.0 KHz, 6 ch, 384 Kbps, CBR VO [R.A.I.M]
      Аудио #5: DTS, 48.0 KHz, 6 ch, 1 510 Kbps, CBR (English)
      Навигация по главам: есть


    Код:

    Общее
    Уникальный идентификатор                 : 227390278849419828704154605026910631385 (0xAB11C65362C2DDF09FF58A35B8FF75D9)
    Полное имя                               : D:\Торенты\Locke.1080p.2013.Release for Piratbit.net_R.G. HD-Films .mkv
    Формат                                   : Matroska
    Версия формата                           : Version 4 / Version 2
    Размер файла                             : 9,15 Гбайт
    Продолжительность                        : 1 ч. 24 м.
    Режим общего битрейта                    : Переменный
    Общий поток                              : 15,4 Мбит/сек
    Название фильма                          : Release for Piratbit.net_R.G. HD-Films
    Дата кодирования                         : UTC 2014-08-06 03:39:38
    Программа кодирования                    : mkvmerge v6.7.0 ('Back to the Ground') 64bit built on Jan  8 2014 15:10:52
    Библиотека кодирования                   : libebml v1.3.0 + libmatroska v1.4.1
    Attachment                               : Yes

    Видео
    Идентификатор                            : 1
    Формат                                   : AVC
    Формат/Информация                        : Advanced Video Codec
    Профиль формата                          : [email protected]
    Параметр CABAC формата                   : Да
    Параметр ReFrames формата                : 5 кадров
    Идентификатор кодека                     : V_MPEG4/ISO/AVC
    Продолжительность                        : 1 ч. 24 м.
    Номинальный битрейт                      : 9557 Кбит/сек
    Ширина                                   : 1920 пикселей
    Высота                                   : 800 пикселей
    Соотношение сторон                       : 2,40:1
    Режим частоты кадров                     : Постоянный
    Частота кадров                           : 23,976 кадра/сек
    Цветовое пространство                    : YUV
    Субдискретизация насыщенности            : 4:2:0
    Битовая глубина                          : 8 бит
    Тип развёртки                            : Прогрессивная
    Бит/(Пиксели*Кадры)                      : 0.260
    Заголовок                                : Release for Piratbit.net_R.G. HD-Films
    Библиотека кодирования                   : x264 core 142 r2431 ac76440
    Настройки программы                      : cabac=1 / ref=5 / deblock=1:-3:-3 / analyse=0x3:0x113 / me=umh / subme=8 / psy=1 / psy_rd=1.00:0.00 / mixed_ref=1 / me_range=16 / chroma_me=1 / trellis=1 / 8x8dct=1 / cqm=0 / deadzone=21,11 / fast_pskip=1 / chroma_qp_offset=-2 / threads=18 / lookahead_threads=3 / sliced_threads=0 / nr=0 / decimate=1 / interlaced=0 / bluray_compat=0 / constrained_intra=0 / bframes=3 / b_pyramid=2 / b_adapt=2 / b_bias=0 / direct=3 / weightb=1 / open_gop=0 / weightp=2 / keyint=240 / keyint_min=24 / scenecut=40 / intra_refresh=0 / rc_lookahead=50 / rc=2pass / mbtree=1 / bitrate=9557 / ratetol=1.0 / qcomp=0.60 / qpmin=0 / qpmax=69 / qpstep=4 / cplxblur=20.0 / qblur=0.5 / ip_ratio=1.40 / aq=1:1.00
    Язык                                     : Russian
    Default                                  : Да
    Forced                                   : Нет

    Аудио #1
    Идентификатор                            : 2
    Формат                                   : AC-3
    Формат/Информация                        : Audio Coding 3
    Расширение режима                        : CM (complete main)
    Параметр Endianness формата              : Big
    Идентификатор кодека                     : A_AC3
    Продолжительность                        : 1 ч. 24 м.
    Вид битрейта                             : Постоянный
    Битрейт                                  : 384 Кбит/сек
    Каналы                                   : 6 каналов
    Расположение каналов                     : Front: L C R, Side: L R, LFE
    Частота                                  : 48,0 КГц
    Битовая глубина                          : 16 бит
    Метод сжатия                             : С потерями
    Размер потока                            : 233 Мбайт (2%)
    Заголовок                                : MVO (Baibako)
    Язык                                     : Russian
    Default                                  : Да
    Forced                                   : Да

    Аудио #2
    Идентификатор                            : 3
    Формат                                   : AC-3
    Формат/Информация                        : Audio Coding 3
    Расширение режима                        : CM (complete main)
    Параметр Endianness формата              : Big
    Идентификатор кодека                     : A_AC3
    Продолжительность                        : 1 ч. 24 м.
    Вид битрейта                             : Постоянный
    Битрейт                                  : 448 Кбит/сек
    Каналы                                   : 6 каналов
    Расположение каналов                     : Front: L C R, Side: L R, LFE
    Частота                                  : 48,0 КГц
    Битовая глубина                          : 16 бит
    Метод сжатия                             : С потерями
    Размер потока                            : 272 Мбайт (3%)
    Заголовок                                : MVO (Гараж дубляж)
    Язык                                     : Russian
    Default                                  : Нет
    Forced                                   : Нет

    Аудио #3
    Идентификатор                            : 4
    Формат                                   : DTS
    Формат/Информация                        : Digital Theater Systems
    Профиль формата                          : MA / Core
    Режим                                    : 16
    Параметр Endianness формата              : Big
    Идентификатор кодека                     : A_DTS
    Продолжительность                        : 1 ч. 24 м.
    Вид битрейта                             : Переменный
    Битрейт                                  : Неизвестно / 1509 Кбит/сек
    Каналы                                   : 6 каналов
    Расположение каналов                     : Front: L C R, Side: L R, LFE
    Частота                                  : 48,0 КГц
    Битовая глубина                          : 24 бит
    Метод сжатия                             : Без потерь / Lossy
    Заголовок                                : MVO (Гараж дубляж)
    Язык                                     : Russian
    Default                                  : Нет
    Forced                                   : Нет

    Аудио #4
    Идентификатор                            : 5
    Формат                                   : AC-3
    Формат/Информация                        : Audio Coding 3
    Расширение режима                        : CM (complete main)
    Параметр Endianness формата              : Big
    Идентификатор кодека                     : A_AC3
    Продолжительность                        : 1 ч. 24 м.
    Вид битрейта                             : Постоянный
    Битрейт                                  : 384 Кбит/сек
    Каналы                                   : 6 каналов
    Расположение каналов                     : Front: L C R, Side: L R, LFE
    Частота                                  : 48,0 КГц
    Битовая глубина                          : 16 бит
    Метод сжатия                             : С потерями
    Размер потока                            : 233 Мбайт (2%)
    Заголовок                                : VO [R.A.I.M]
    Default                                  : Нет
    Forced                                   : Нет

    Аудио #5
    Идентификатор                            : 6
    Формат                                   : DTS
    Формат/Информация                        : Digital Theater Systems
    Режим                                    : 16
    Параметр Endianness формата              : Big
    Идентификатор кодека                     : A_DTS
    Продолжительность                        : 1 ч. 24 м.
    Вид битрейта                             : Постоянный
    Битрейт                                  : 1509 Кбит/сек
    Каналы                                   : 6 каналов
    Расположение каналов                     : Front: L C R, Side: L R, LFE
    Частота                                  : 48,0 КГц
    Битовая глубина                          : 24 бит
    Метод сжатия                             : С потерями
    Размер потока                            : 916 Мбайт (10%)
    Язык                                     : English
    Default                                  : Нет
    Forced                                   : Нет

    Текст #1
    Идентификатор                            : 7
    Формат                                   : UTF-8
    Идентификатор кодека                     : S_TEXT/UTF8
    Идентификатор кодека/Информация          : UTF-8 Plain Text
    Язык                                     : Russian
    Default                                  : Нет
    Forced                                   : Нет

    Текст #2
    Идентификатор                            : 8
    Формат                                   : UTF-8
    Идентификатор кодека                     : S_TEXT/UTF8
    Идентификатор кодека/Информация          : UTF-8 Plain Text
    Язык                                     : Russian
    Default                                  : Нет
    Forced                                   : Нет

    Меню
    00:00:00.000                             : en:00:00:00.000
    00:03:38.468                             : en:00:03:38.468
    00:09:22.729                             : en:00:09:22.729
    00:15:00.983                             : en:00:15:00.983
    00:21:20.529                             : en:00:21:20.529
    00:26:00.225                             : en:00:26:00.225
    00:30:32.039                             : en:00:30:32.039
    00:37:23.867                             : en:00:37:23.867
    00:43:03.539                             : en:00:43:03.539
    00:49:57.411                             : en:00:49:57.411
    00:56:08.407                             : en:00:56:08.407
    00:59:37.532                             : en:00:59:37.532
    01:04:29.657                             : en:01:04:29.657
    01:10:05.660                             : en:01:10:05.660
    01:15:32.153                             : en:01:15:32.153
    01:18:31.040                             : en:01:18:31.040

    Скриншоты:

    Каталог Новинок (Фильмы-трейлеры, Игры, Сериалы, Мультфильмы)

    Релиз подготовлен специально для Piratbit.net. by Raven
    pb.wtf



  • Скачать Лок через торрент https://pic.kartinco.top/new/img/2014-08/06/xseu9p9ig346qcjrsps32s27n.png Скачать, смотреть онлайн Лок бесплантно в хорошем качестве Описание:Иван Лок живет размеренной жизнью и очень много работает, чтобы добиться успеха. Завтрашний день - один из важнейших в его жизни, ... 9.4 10 15
    Info! Золотая раздача, скачанное не засчитывается.
    Торрент: Зарегистрирован [2014-08-06 04:14] · скачан: 389 раз
    Статус: √ проверено
    Размер: 9.15 GB
    Как cкачать? Как скачать Лок через торрент | UTorrent

    28-11-2019 20:33  

    Отключить вcю реклaмy на сайте

    06-08-2014 04:18 Лок Скачать торрент  

    Релиз обновлен, добавлен перевод от | Baibako+ DTS [Гараж Дубляж]pb.wtf



    06-08-2014 12:45 Лок Скачать торрент  

    блин, это бетон бетонский какой-то. весь фильм состоит из телефонных разговоров в машине. всё. больше ничего нет. дрянь полнейшая... :shoot2: :cansored:pb.wtf





    Последний раз редактировалось: edapush (2015-08-02 12:56), всего редактировалось 1 раз

    06-08-2014 12:51 Лок Скачать торрент  

    Ура ура ура, спасибо!!!pb.wtf



    06-08-2014 14:53 Лок Скачать торрент  

    стоит смотрет да или нетpb.wtf



    06-08-2014 15:01 Лок Скачать торрент  

    нет!!pb.wtf



    06-08-2014 16:37 Лок Скачать торрент  

    fredsaw писал(а):

    нет!!

    +1pb.wtf



    07-08-2014 16:09 Лок Скачать торрент  

    Боже, что это за фильм?! посмотрел 20 минут - ехал в машине, я заснул (как оказалось не зря), проснулся спустя 40 минут - все еще едет в машине. rofl rofl roflpb.wtf



    16-08-2014 22:23 Лок Скачать торрент  

    фильм на любителя, мне понравился, даже очень, серьезное киноpb.wtf



    06-10-2014 18:05 Лок Скачать торрент  

    donmiches писал(а):

    фильм на любителя, мне понравился, даже очень, серьезное кино

    вот это говнищщщщщееееpb.wtf



    05-10-2020 15:12 Лок Скачать торрент  

    Скорости будьте добрыpb.wtf



      Дорогой пользователь! Огромная просьба, поблагодарите релизера, оцените раздачу и оставьте свои комментарий, если Вы скачали Лок через торрент бесплатно!
      Комментировать посты могут только пользователи прошедшие не сложную регистрацию
      Показать сообщения:    

      Лок через торрент
      Скачать бесплатно Лок
      Лок скачать торрент
      Лок смотреть онлайн
      Cкачать фильм Лок бесплатно
      Лок скачать торрент в хорошем качестве
      Лок смотреть онлайн бесплатно в хорошем качестве


      Вы не можете начинать темы
      Вы не можете отвечать на сообщения
      Вы не можете редактировать свои сообщения
      Вы не можете удалять свои сообщения
      Вы не можете голосовать в опросах
      Вы не можете прикреплять файлы к сообщениям
      Вы можете скачивать файлы