Ссылка на приватное зеркало нашего сайта всего за 1$. Внимание количество ограничено!!!

2 сезон

iTunes

1 сезон

1

iTunes

iTunes

iTunes

1 сезон

RePack

30

ИГРА 18+

pack

ВАЖНО

!!Акция!!

Alien_RageХит недели

RePack

MK11
pack

Забери бонус

RePack

jed

!!Акция!!

Alien_Rage

RePack

fifa19

RePack

Assassins Creed: Odyssey

RePack

NEED FOR SPEED™ PAYBACK

4 сезон

9 сезон

Бесстыжие 9 сезон

Все сериалы

все сериалы на PB.wtf

RePack

FAR CRY 5
  

Зеркала (Марина Мигунова) [2013, Россия, драма, биография, история, WEB-DLRip] pb.wtf

Зеркала через торрент pb.wtf

Размер: 1.46 GB | Добавлен: 6 лет 2 мес. назад | Торрент скачан:279 раз
Скачать  

04-08-2014 13:57 Зеркала Скачать торрент  


Зеркала


Год выпуска:2013
Страна:Россия
Жанр:драма, биография, история
Продолжительность:02:17:29
Перевод:Не требуется
Режиссер:Марина Мигунова
В ролях:

Виктория Исакова (Марина Цветаева), Роман Полянский (Сергей Эфрон), Виктор Добронравов (Родзевич), Александра Мошкова (Аля), Евгений Князев (Борис), Игорь Письменный, Владимир Сычёв
  • Описание:
    Лето. Крым. Последние годы перед революцией. Молодая Марина Цветаева встречает гимназиста Сергея Эфрона. И только она знает, что эти отношения оба пронесут через всю свою жизнь.
    Действие фильма происходит в разных странах и городах - в Москве, Париже, Праге и Коктебеле. На фоне эпохальных событий в мире развивается чувственная история отношений мужчины и женщины. «Зеркала» - это отражения великой Цветаевой в ее возлюбленных - муже и любовниках.


    Качество:WEB-DLRip
    Формат:AVI
    Видео кодек: XviD
    Аудио кодек:AC3
    Видео: XviD, 720x384 (1.875), 1129 kbps, 24 fps, 0,170 bpp
    Аудио: AC3 / 5.1 / 48 kHz / 384 kbps / 16 bit

    Код:

    General
    Complete name                            : D:\Торенты\3epkala.2013.O.WEBDLRip.1.46.avi
    Format                                   : AVI
    Format/Info                              : Audio Video Interleave
    File size                                : 1.46 GiB
    Duration                                 : 2h 17mn
    Overall bit rate                         : 1 523 Kbps
    Writing application                      : VirtualDubMod 1.5.10.3 | www.virtualdub-fr.org || (build 2550/release)
    Writing library                          : VirtualDubMod build 2550/release

    Video
    ID                                       : 0
    Format                                   : MPEG-4 Visual
    Format profile                           : Advanced Simple@L5
    Format settings, BVOP                    : 2
    Format settings, QPel                    : No
    Format settings, GMC                     : No warppoints
    Format settings, Matrix                  : Default (MPEG)
    Codec ID                                 : XVID
    Codec ID/Hint                            : XviD
    Duration                                 : 2h 17mn
    Bit rate                                 : 1 130 Kbps
    Width                                    : 720 pixels
    Height                                   : 384 pixels
    Display aspect ratio                     : 1.875
    Frame rate                               : 24.000 fps
    Color space                              : YUV
    Chroma subsampling                       : 4:2:0
    Bit depth                                : 8 bits
    Scan type                                : Progressive
    Compression mode                         : Lossy
    Bits/(Pixel*Frame)                       : 0.170
    Stream size                              : 1.08 GiB (74%)
    Writing library                          : XviD 1.2.1 (UTC 2008-12-04)

    Audio
    ID                                       : 1
    Format                                   : AC-3
    Format/Info                              : Audio Coding 3
    Mode extension                           : CM (complete main)
    Codec ID                                 : 2000
    Duration                                 : 2h 17mn
    Bit rate mode                            : Constant
    Bit rate                                 : 384 Kbps
    Channel(s)                               : 6 channels
    Channel positions                        : Front: L C R, Side: L R, LFE
    Sampling rate                            : 48.0 KHz
    Bit depth                                : 16 bits
    Compression mode                         : Lossy
    Stream size                              : 378 MiB (25%)
    Alignment                                : Split accross interleaves
    Interleave, duration                     : 42 ms (1.00 video frame)
    Interleave, preload duration             : 500 ms


    Скриншоты:

    Каталог Новинок (Фильмы-трейлеры, Игры, Сериалы, Мультфильмы)
    © Оформление by Raven
    pb.wtf



  • Скачать Зеркала через торрент http://pic.kartinco.top/images/6/ordi9.jpg Скачать фильм Зеркала через торрент бесплантно в хорошем качестве Описание:Лето. Крым. Последние годы перед революцией. Молодая Марина Цветаева встречает гимназиста Сергея Эфрона. И только она знает, что ... 10 10 7
    Торрент: Зарегистрирован [2014-08-04 13:57] · скачан: 279 раз
    Статус: √ проверено
    Размер: 1.46 GB
    Как cкачать? Как скачать Зеркала через торрент | qTorrent

    % Раздел Тема Автор DL S | L
    T Фильмы 2018 [DVDrip, WEB-DLRip, HDrip] (DUB, MVO) [ 1.74 GB ] Черное зеркало: Брандашмыг / Black Mirror: Bandersnatch [2018 WEBRip-AVC] MVO [Profix Media] -Lexx- Скачать
    2 | 0
    Фильмы (WEB-DL 720p, 1080p) [ 3.83 GB ] Черное зеркало: Брандашмыг / Black Mirror: Bandersnatch [2018 WEBRip 1080p] MVO [LostFilm] bober100 Скачать
    1 | 0
    Фильмы (WEB-DL 720p, 1080p) [ 3.54 GB ] Черное зеркало: Брандашмыг / Black Mirror: Bandersnatch [2018 социальная сатира WEBRip 1080p] [MVO] killermax2013 Скачать
    1 | 0
    T Фильмы (мультфильмы) cо спонсором показа (Новинки AVI/MKV) [ 12.02 GB ] Черное зеркало: Брандашмыг / Black Mirror: Bandersnatch [2018 WEBRip 720p] [Полная версия 5 часов] MVO [BaibaKo] bober100 Скачать
    1 | 0
    Зарубежные сериалы [ 27.34 GB ] Черное зеркало / Black Mirror / Сезон: 4 / Серии: 1-6 из 6 [2017 WEBRip 1080p] [DVO] + 2x[MVO] killermax2013 Скачать
    1 | 0
    T Фильмы (мультфильмы) cо спонсором показа (Новинки AVI/MKV) [ 1.37 GB ] Черное зеркало: Брандашмыг / Black Mirror: Bandersnatch [2018 WEB-DLRip] [Line] killermax2013 Скачать
    1 | 0
    Зарубежные сериалы [ 8.64 GB ] Черное зеркало / Black Mirror / Сезон: 2 / Серии: 1-3 [2013 HDTV 1080i] DVO + Original Messa-fan Скачать
    1 | 0

    28-11-2019 20:33  

    Отключить всю рекламу на сайте

      Дорогой пользователь! Огромная просьба, поблагодарите релизера, оцените раздачу и оставьте свои комментарий, если Вы скачали Зеркала через торрент бесплатно! Внесите свою лепту в развитие PiratBit!
      Комментировать посты могут только пользователи прошедшие не сложную регистрацию
      Показать сообщения:    

      Зеркала через торрент
      Скачать бесплатно Зеркала
      Зеркала скачать торрент
      Зеркала смотреть онлайн
      Cкачать фильм Зеркала бесплатно
      Зеркала скачать торрент в хорошем качестве
      Зеркала смотреть онлайн бесплатно в хорошем качестве


      Вы не можете начинать темы
      Вы не можете отвечать на сообщения
      Вы не можете редактировать свои сообщения
      Вы не можете удалять свои сообщения
      Вы не можете голосовать в опросах
      Вы не можете прикреплять файлы к сообщениям
      Вы можете скачивать файлы