Ссылка на приватное зеркало нашего сайта всего за 1$. Внимание количество ограничено!!!

2 сезон

iTunes

1 сезон

1

2 сезон

2 сезон

iTunes

1 сезон

RePack

30

Новинка

ВАЖНО

ИГРА 18+

pack

RePack

MK11
pack

Забери бонус

RePack

jed

!!Акция!!

Alien_Rage

RePack

fifa19

RePack

Assassins Creed: Odyssey

RePack

NEED FOR SPEED™ PAYBACK

4 сезон

9 сезон

Бесстыжие 9 сезон

Все сериалы

все сериалы на PB.wtf

RePack

FAR CRY 5
  

Манхэттен / Manhattan / Сезон: 1 / Серии 1-13 из 13 (Томас Шламми / Thomas Schlamme, Пэрис Барклай / Paris Barclay, Билл Д’Элиа / Bill D'Elia) [2014, США, драма, WEB-DLRip, MVO] [BaibaKo] pb.wtf

Манхэттен через торрент pb.wtf

Размер: 9.36 GB | Добавлен: 5 лет 10 мес. назад | Торрент скачан:102 раза
Скачать  

05-08-2014 00:44 Манхэттен Скачать торрент  

Манхэттен / Manhattan
«Ядерная. Семья»


  • Год выпуска: 2014
  • Страна: США
  • Жанр: драма
  • Продолжительность: 00:56:50(Серия)
  • Перевод: Профессиональный многоголосый закадровый) [BaibaKo]

  • Режиссер: Томас Шламми / Thomas Schlamme, Пэрис Барклай / Paris Barclay, Билл Д’Элиа / Bill D'Elia
  • В ролях:

    Джон Бенжамин Хикки (Frank Winter), Стив Ларесэ (Scientist), Яронь Уайт (Military Policeman), Рэйчел Броснахэн (Abby Isaacs), Катя Херберс (Helen), Rodney Nagel (Scientist (theoretical physicist)), Rafael Torrez (Scientist), Chadwick Johnson (Scientist), Бэрри Р. Уайт (Military Policeman), Майкл Чернус (Louis «Fritz» Fedowitz), Кристофер Денэм (Jim Meeks), Эшли Цукерман (Charlie Isaacs)

  • Описание:
    Действие драматического сериала начинается во время Второй мировой войны, в начале 1940-х годов прошлого века. Американское правительство создает особую программу по разработке ядерного оружия — «Проект „Манхэттен“». К работе привлекаются самые опытные ученые разных специальностей, которых вербуют и переправляют в пустыню Нью-Мексико, в Лос-Аламос. Возглавляет сложную и опасную работу лаборатории профессор Фрэнк Уинтер (Джон Бенджамин Хикки). Участникам проекта каждый день приходится идти на сделку со своей совестью, выбирая между моральными ценностями и долгом, скрывая правду о своей работе от самых близких людей... Сериал «Манхэттен» основан на реальных событиях.
  • Рейтинг:



  • Качество: WEB-DLRip
  • Формат: :AVI
  • Видео кодек: XviD
  • Аудио кодек: MP3
  • Видео: 720x400 (16:9), 1503 kbps, 23,976 fps, 0,218 bpp
  • Аудио №1: русский 2.0 / 48 kHz / 192 kbps
  • Аудио №2: английский 2.0 / 48 kHz / 192 kbps
  • Релиз от: GEKADOL

    Код:

    Внимание! Раздача ведётся путём добавления новых серий; при каждом добавлении создаётся новый торрент. Чтобы начать докачку новой серии, пользователям необходимо сделать следующее:
    (1) остановить скачивание,
    (2) удалить старый торрент у себя из клиента (старые серии удалять не надо),
    (3) скачать новый торрент и запустить его у себя в клиенте вместо старого, при этом указать клиенту путь в старую папку куда и должно происходить скачивание новых серий.
    Ваш клиент при этом должен произвести хеширование (проверку) старой папки (если не производит сам - помогите ему сделать это), и будет докачивать только те серии которых у вас ещё нет. Старые серии при этом не удаляются, а продолжают раздаваться!
    Eсли вы уже удалили старые серии, то предотвратить повторную закачку старых серий можно, отжав галочку в соответсвующих местах при запуске нового торрента. По возможности, желательно не удалять старые серии как можно дольше чтобы релизёр не столько продолжал раздавать старые серии, а смог сконцентрироваться на новых.


    Код:

    General
    Complete name                            : G:\Manhattan (s01) bbk\Manhattan.s01e01.WEB-DLRip.XviD.Rus-Eng.BaibaKo.tv.avi
    Format                                   : AVI
    Format/Info                              : Audio Video Interleave
    File size                                : 773 MiB
    Duration                                 : 56mn 50s
    Overall bit rate                         : 1 901 Kbps
    Writing application                      : VirtualDubMod 1.5.10.2 (build 2540/release)
    Writing library                          : VirtualDubMod build 2540/release

    Video
    ID                                       : 0
    Format                                   : MPEG-4 Visual
    Format profile                           : Advanced Simple@L5
    Format settings, BVOP                    : 2
    Format settings, QPel                    : No
    Format settings, GMC                     : No warppoints
    Format settings, Matrix                  : Default (H.263)
    Codec ID                                 : XVID
    Codec ID/Hint                            : XviD
    Duration                                 : 56mn 50s
    Bit rate                                 : 1 504 Kbps
    Width                                    : 720 pixels
    Height                                   : 400 pixels
    Display aspect ratio                     : 16:9
    Frame rate                               : 23.976 fps
    Color space                              : YUV
    Chroma subsampling                       : 4:2:0
    Bit depth                                : 8 bits
    Scan type                                : Progressive
    Compression mode                         : Lossy
    Bits/(Pixel*Frame)                       : 0.218
    Stream size                              : 611 MiB (79%)
    Writing library                          : XviD 1.2.1 (UTC 2008-12-04)

    Audio #1
    ID                                       : 1
    Format                                   : MPEG Audio
    Format version                           : Version 1
    Format profile                           : Layer 3
    Mode                                     : Joint stereo
    Mode extension                           : MS Stereo
    Codec ID                                 : 55
    Codec ID/Hint                            : MP3
    Duration                                 : 56mn 50s
    Bit rate mode                            : Constant
    Bit rate                                 : 192 Kbps
    Channel(s)                               : 2 channels
    Sampling rate                            : 48.0 KHz
    Compression mode                         : Lossy
    Stream size                              : 78.1 MiB (10%)
    Alignment                                : Aligned on interleaves
    Interleave, duration                     : 42 ms (1.00 video frame)
    Interleave, preload duration             : 504 ms

    Audio #2
    ID                                       : 2
    Format                                   : MPEG Audio
    Format version                           : Version 1
    Format profile                           : Layer 3
    Mode                                     : Joint stereo
    Mode extension                           : MS Stereo
    Codec ID                                 : 55
    Codec ID/Hint                            : MP3
    Duration                                 : 56mn 50s
    Bit rate mode                            : Constant
    Bit rate                                 : 192 Kbps
    Channel(s)                               : 2 channels
    Sampling rate                            : 48.0 KHz
    Compression mode                         : Lossy
    Stream size                              : 78.1 MiB (10%)
    Alignment                                : Aligned on interleaves
    Interleave, duration                     : 42 ms (1.00 video frame)
    Interleave, preload duration             : 504 ms


    Скриншоты:
    скриншот   скриншот   скриншот   скриншот   скриншот  
    скриншот  

    Раздача ведётся путём добавления новых серий. Добавлена 13 серия (02.02.2015).Просьба перекачать торрент файл.

    pb.wtf



  • Скачать Манхэттен через торрент http://i66.fastpic.ru/big/2014/0805/68/f1b7b9b6e430f6ac3d63f8062288be68.png Скачать фильм Манхэттен через торрент бесплантно в хорошем качестве Описание: Действие драматического сериала начинается во время Второй мировой войны, в начале 1940-х годов прошлого века. Американское ... 10 10 9
    Info! Золотая раздача, скачанное не засчитывается.
    Торрент: Зарегистрирован [2015-02-02 13:43] · скачан: 102 раз
    Статус: √ проверено
    Размер: 9.36 GB
    Как cкачать? Как скачать Манхэттен через торрент | qTorrent

    % Раздел Тема Автор DL S | L
    Зарубежные сериалы [ 21.14 GB ] Манхэттен / Manhattan / Сезон: 1 / Серии: 1-13 из 13 [2014 WEB-DL 720p] MVO + Original Assasinca Скачать
    1 | 0


    Последний раз редактировалось: GEKADOL (2015-02-02 13:42), всего редактировалось 5 раз(а)

    28-11-2019 20:33  

    Отключить всю рекламу на сайте

    09-12-2014 21:58 Манхэттен Скачать торрент  

    когда новые серии?pb.wtf



    27-01-2015 01:27 Манхэттен Скачать торрент  

    Zhabin.igr писал(а):

    когда новые серии?

    Зависит от [BaibaKo]!
    pb.wtf



    27-01-2015 04:55 Манхэттен Скачать торрент  

    Уже давно посмотрел с сабами, байбаки в погоде за прибылью переводят сериалы про всяких ТП а этот офигенский сериал по одной серии в месяцpb.wtf



      Дорогой пользователь! Огромная просьба, поблагодарите релизера, оцените раздачу и оставьте свои комментарий, если Вы скачали Манхэттен через торрент бесплатно! Внесите свою лепту в развитие PiratBit!
      Комментировать посты могут только пользователи прошедшие не сложную регистрацию
      Показать сообщения:    

      Манхэттен через торрент
      Скачать бесплатно Манхэттен
      Манхэттен скачать торрент
      Манхэттен смотреть онлайн
      Cкачать фильм Манхэттен бесплатно
      Манхэттен скачать торрент в хорошем качестве
      Манхэттен смотреть онлайн бесплатно в хорошем качестве


      Вы не можете начинать темы
      Вы не можете отвечать на сообщения
      Вы не можете редактировать свои сообщения
      Вы не можете удалять свои сообщения
      Вы не можете голосовать в опросах
      Вы не можете прикреплять файлы к сообщениям
      Вы можете скачивать файлы