Ссылка на приватное зеркало нашего сайта всего за 1$. Внимание количество ограничено!!!

2 сезон

iTunes

1 сезон

1

2 сезон

2 сезон

iTunes

1 сезон

RePack

30

Ultimate

ВАЖНО

ИГРА 18+

pack

RePack

MK11
pack

Забери бонус

RePack

jed

!!Акция!!

Alien_Rage

RePack

fifa19

RePack

Assassins Creed: Odyssey

RePack

NEED FOR SPEED™ PAYBACK

4 сезон

9 сезон

Бесстыжие 9 сезон

Все сериалы

все сериалы на PB.wtf

RePack

FAR CRY 5
  

Натиск / Доктор Кайф / Раш / Rush / Сезон: 1 / Серии 1-2 из ? (Билл Джонсон / Bill Johnson, Джонатан Левин / Jonathan Levine, Деран Сарафян / Deran Sarafian) [2014, Канада, боевик, драма, WEB-DLRip(AVC), MVO) [BaibaKo] pb.wtf

Натиск через торрент pb.wtf

Размер: 1.14 GB | Добавлен: 6 лет 3 мес. назад | Торрент скачан:22 раза
Скачать  

05-08-2014 12:10 Натиск Скачать торрент  

Натиск / Доктор Кайф / Раш / Rush
«Хороший врач. Вредные привычки»


  • Год выпуска: 2014
  • Страна: Канада
  • Жанр: боевик, драма
  • Продолжительность: 00:43:09(Серия)
  • Перевод: Профессиональный многоголосый закадровый [BaibaKo]

  • Режиссер: Билл Джонсон / Bill Johnson, Джонатан Левин / Jonathan Levine, Деран Сарафян / Deran Sarafian
  • В ролях:

    Тич Грант (Harold Waters), Том Эллис (William P. Rush), Лоренц Тейт (Dr. Alex Burke), Сара Хабель (Eve Parker), Рик Гонсалес (Manny Maquis), Брайан Маркинсон (Billy Bloom), Роландо Молина (Raoul), Quintin Warner (Elliot Burke), Билли Лаш (Carter (2014)), Одетт Эннэйбл (Sarah Peterson), Виктория Смёрфит, Эрика Серра (Laurel Burke)

  • Описание:
    Доктор Уильям Раш не похож на обычного терапевта. Он не работает в больнице и чрезвычайно внимателен к любому вашему недугу до тех пор, пока ему платят и он может тусоваться в высших кругах общества. Доктор Уильям Раш (Том Эллис) принимает слишком много наркотиков, чтобы работать в больнице. Он нюхает кокаин, спит с кем придется и думает только о себе – даже в тех редчайших случаях, когда делает что-то хорошее. Поэтому у него особый врачебный бизнес. Раш за наличные обслуживает тех состоятельных жителей Лос-Анджелеса, кто не любит клиники и полицию. Избили до крови девушку? Схлопотали пулю в перестрелке? Раш приедет и поможет. До поры до времени его не заботило то, что большинство его пациентов зарабатывают на жизнь не совсем честным путем и хранят слишком много секретов. Но вскоре все изменилось. Раш оказался втянутым в неприятности, и теперь ему предстоит пересмотреть свои прежние идеалы и изменить свой образ жизни.
  • Рейтинг:



  • Качество: WEB-DLRip(AVC)
  • Формат: :MPEG-4
  • Видео кодек: AVC
  • Аудио кодек: AAC LC
  • Видео: 720x400 (16:9), 1536 kbps, 23,976 fps, 0,222 bpp
  • Аудио №1: русский / 2.0 / 48 kHz / 192 kbps
  • Аудио №2: английский / 2.0 / 48 kHz / 192 kbps
  • Релиз от: GEKADOL

    Код:

    Внимание! Раздача ведётся путём добавления новых серий; при каждом добавлении создаётся новый торрент. Чтобы начать докачку новой серии, пользователям необходимо сделать следующее:
    (1) остановить скачивание,
    (2) удалить старый торрент у себя из клиента (старые серии удалять не надо),
    (3) скачать новый торрент и запустить его у себя в клиенте вместо старого, при этом указать клиенту путь в старую папку куда и должно происходить скачивание новых серий.
    Ваш клиент при этом должен произвести хеширование (проверку) старой папки (если не производит сам - помогите ему сделать это), и будет докачивать только те серии которых у вас ещё нет. Старые серии при этом не удаляются, а продолжают раздаваться!
    Eсли вы уже удалили старые серии, то предотвратить повторную закачку старых серий можно, отжав галочку в соответсвующих местах при запуске нового торрента. По возможности, желательно не удалять старые серии как можно дольше чтобы релизёр не столько продолжал раздавать старые серии, а смог сконцентрироваться на новых.


    Код:

    General
    Complete name                            : G:\Доктор Кайф (Раш)2014\Rush.US.s01e01.WEB-DLRip.x264.Rus-Eng.BaibaKo.tv.mp4
    Format                                   : MPEG-4
    Format profile                           : Base Media
    Codec ID                                 : isom
    File size                                : 593 MiB
    Duration                                 : 43mn 9s
    Overall bit rate mode                    : Variable
    Overall bit rate                         : 1 920 Kbps
    Encoded date                             : UTC 2014-08-05 11:30:00
    Tagged date                              : UTC 2014-08-05 11:30:00

    Video
    ID                                       : 1
    Format                                   : AVC
    Format/Info                              : Advanced Video Codec
    Format profile                           : Baseline@L3.0
    Format settings, CABAC                   : No
    Format settings, ReFrames                : 3 frames
    Codec ID                                 : avc1
    Codec ID/Info                            : Advanced Video Coding
    Duration                                 : 43mn 9s
    Bit rate                                 : 1 536 Kbps
    Maximum bit rate                         : 5 791 Kbps
    Width                                    : 720 pixels
    Height                                   : 400 pixels
    Display aspect ratio                     : 16:9
    Frame rate mode                          : Variable
    Frame rate                               : 23.976 fps
    Minimum frame rate                       : 23.974 fps
    Maximum frame rate                       : 23.981 fps
    Color space                              : YUV
    Chroma subsampling                       : 4:2:0
    Bit depth                                : 8 bits
    Scan type                                : Progressive
    Bits/(Pixel*Frame)                       : 0.222
    Stream size                              : 474 MiB (80%)
    Writing library                          : x264 core 130 r2273 b3065e6
    Encoding settings                        : cabac=0 / ref=3 / deblock=1:0:0 / analyse=0x1:0x111 / me=hex / subme=7 / psy=1 / psy_rd=1.00:0.00 / mixed_ref=1 / me_range=16 / chroma_me=1 / trellis=1 / 8x8dct=0 / cqm=0 / deadzone=21,11 / fast_pskip=1 / chroma_qp_offset=-2 / threads=12 / lookahead_threads=2 / sliced_threads=0 / nr=0 / decimate=1 / interlaced=0 / bluray_compat=0 / constrained_intra=0 / bframes=0 / weightp=0 / keyint=240 / keyint_min=24 / scenecut=40 / intra_refresh=0 / rc_lookahead=40 / rc=2pass / mbtree=1 / bitrate=1536 / ratetol=1.0 / qcomp=0.60 / qpmin=0 / qpmax=69 / qpstep=4 / cplxblur=20.0 / qblur=0.5 / ip_ratio=1.40 / aq=1:1.00
    Encoded date                             : UTC 2014-07-31 12:49:21
    Tagged date                              : UTC 2014-08-05 11:31:16
    Color primaries                          : BT.709-5, BT.1361, IEC 61966-2-4, SMPTE RP177
    Transfer characteristics                 : BT.709-5, BT.1361
    Matrix coefficients                      : BT.709-5, BT.1361, IEC 61966-2-4 709, SMPTE RP177

    Audio #1
    ID                                       : 2
    Format                                   : AAC
    Format/Info                              : Advanced Audio Codec
    Format profile                           : LC
    Codec ID                                 : 67
    Duration                                 : 43mn 9s
    Bit rate mode                            : Variable
    Bit rate                                 : 192 Kbps
    Maximum bit rate                         : 196 Kbps
    Channel(s)                               : 2 channels
    Channel positions                        : Front: L R
    Sampling rate                            : 48.0 KHz
    Compression mode                         : Lossy
    Stream size                              : 58.5 MiB (10%)
    Language                                 : Russian
    Encoded date                             : UTC 2014-08-05 11:30:47
    Tagged date                              : UTC 2014-08-05 11:31:16

    Audio #2
    ID                                       : 3
    Format                                   : AAC
    Format/Info                              : Advanced Audio Codec
    Format profile                           : LC
    Codec ID                                 : 67
    Duration                                 : 43mn 9s
    Bit rate mode                            : Variable
    Bit rate                                 : 192 Kbps
    Maximum bit rate                         : 196 Kbps
    Channel(s)                               : 2 channels
    Channel positions                        : Front: L R
    Sampling rate                            : 48.0 KHz
    Compression mode                         : Lossy
    Stream size                              : 58.5 MiB (10%)
    Language                                 : English
    Encoded date                             : UTC 2014-08-05 11:31:03
    Tagged date                              : UTC 2014-08-05 11:31:16


    Скриншоты:
    скриншот  скриншот   скриншот   скриншот  

    Раздача ведётся путём добавления новых серий. Добавлена 2 серия (18.08.2014).Просьба перекачать торрент файл.

    pb.wtf



  • Скачать Натиск через торрент http://i67.fastpic.ru/big/2014/0805/27/3f93fdb43d2931d811cdc7e119238427.jpg Скачать фильм Натиск через торрент бесплантно в хорошем качестве Описание: Доктор Уильям Раш не похож на обычного терапевта. Он не работает в больнице и чрезвычайно внимателен к любому вашему недугу до ... 10 10 2
    Торрент: Зарегистрирован [2014-08-18 00:57] · скачан: 22 раз
    Статус: √ проверено
    Размер: 1.14 GB
    Как cкачать? Как скачать Натиск через торрент | qTorrent

    28-11-2019 20:33  

    Отключить всю рекламу на сайте

      Дорогой пользователь! Огромная просьба, поблагодарите релизера, оцените раздачу и оставьте свои комментарий, если Вы скачали Натиск через торрент бесплатно! Внесите свою лепту в развитие PiratBit!
      Комментировать посты могут только пользователи прошедшие не сложную регистрацию
      Показать сообщения:    

      Натиск через торрент
      Скачать бесплатно Натиск
      Натиск скачать торрент
      Натиск смотреть онлайн
      Cкачать фильм Натиск бесплатно
      Натиск скачать торрент в хорошем качестве
      Натиск смотреть онлайн бесплатно в хорошем качестве


      Вы не можете начинать темы
      Вы не можете отвечать на сообщения
      Вы не можете редактировать свои сообщения
      Вы не можете удалять свои сообщения
      Вы не можете голосовать в опросах
      Вы не можете прикреплять файлы к сообщениям
      Вы можете скачивать файлы