2 сезон

iTunes

MVO

1

2 сезон

iTunes

iTunes

1 сезон

RePack

30

Новинка

ВАЖНО

ИГРА 18+

pack

RePack

MK11
pack

Легкие деньги

RePack

jed

RePack

fifa19

RePack

RDR2

RePack

NEED FOR SPEED™ PAYBACK

4 сезон

9 сезон

Бесстыжие 9 сезон

Все сериалы

все сериалы на PB.wtf

RePack

FAR CRY 5

Anonymous, доброе утро, мы не успеваем собрать деньги на оплату серверов за декабрь и январь, помогите нам пожалуйста в это трудное время. В качестве благодарности мы отключим Вам всю рекламу на сайте (укажите свой ник в строку Ваше имя)!

×
  
Magnet ссылка

Из пекла / Out of the Furnace (Скотт Купер) [2013 г., триллер, драма, криминал, HDRip, Авторский одноголосый С. Визгунов] pb.wtf

Из пекла через торрент pb.wtf

Размер: 1.45 GB | Добавлен: 6 лет 5 мес. назад | Торрент скачан:672 раза
Скачать  

05-08-2014 16:40 Из пекла Скачать торрент  

Из пекла / Out of the Furnace Год выпуска: 2013
Страна: США , Великобритания / Appian Way, Energy Entertainment, Red Granite Pictures
Жанр: триллер, драма, криминал
Продолжительность: 01:56:07
Перевод: Авторский одноголосый (С. Визгунов)

Режиссер: Скотт Купер

В ролях: Кристиан Бэйл, Вуди Харрельсон, Кейси Аффлек, Форест Уитакер, Уиллем Дефо, Зои Салдана, Сэм Шепард, Дендри Тейлор, Карл Киарфалио, Нэнси Моссер

Описание: Когда Родни Бэйз таинственно исчезает, а правоохранительные органы при этом действуют недостаточно быстро, его старший брат Рассел берет дело в свои руки, чтобы добиться справедливости.

Качество: HDRip
Формат: AVI
Видео кодек: XviD
Аудио кодек: AC3
Видео: MPEG4, XviD, 720x304 (2.35:1), 23.976 fps, 1 333 Kbps (0.254 bit/pixel)
Аудио: AC-3, 48.0 KHz, 6 ch, 448 Kbps, CBR

скриншот   скриншот   скриншот   скриншот   скриншот   скриншот   скриншот   скриншот  

Общее
Полное имя : G:\кино\Из пекла.2013.HDRip.avi
Формат : AVI
Формат/Информация : Audio Video Interleave
Размер файла : 1,45 Гбайт
Продолжительность : 1 ч. 56 м.
Общий поток : 1790 Кбит/сек
Программа кодирования : VirtualDubMod 1.5.10.3 | www.virtualdub-fr.org || (build 2550/release)
Библиотека кодирования : VirtualDubMod build 2550/release

Видео
Идентификатор : 0
Формат : MPEG-4 Visual
Профиль формата : Advanced Simple@L5
Параметр BVOP формата : 2
Параметр QPel формата : Нет
Параметр GMC формата : Без точки перехода
Параметр матрицы формата : Default (H.263)
Идентификатор кодека : XVID
Идентификатор кодека/Подсказка : XviD
Продолжительность : 1 ч. 56 м.
Битрейт : 1333 Кбит/сек
Ширина : 720 пикселей
Высота : 304 пикселя
Соотношение сторон : 2,35:1
Частота кадров : 23,976 кадра/сек
Цветовое пространство : YUV
Субдискретизация насыщенности : 4:2:0
Битовая глубина : 8 бит
Тип развёртки : Прогрессивная
Метод сжатия : С потерями
Бит/(Пиксели*Кадры) : 0.254
Размер потока : 1,08 Гбайт (74%)
Библиотека кодирования : XviD 1.2.1 (UTC 2008-12-04)

Аудио
Идентификатор : 1
Формат : AC-3
Формат/Информация : Audio Coding 3
Расширение режима : CM (complete main)
Параметр Endianness формата : Big
Идентификатор кодека : 2000
Продолжительность : 1 ч. 56 м.
Вид битрейта : Постоянный
Битрейт : 448 Кбит/сек
Каналы : 6 каналов
Расположение каналов : Front: L C R, Side: L R, LFE
Частота : 48,0 КГц
Битовая глубина : 16 бит
Метод сжатия : С потерями
Размер потока : 372 Мбайт (25%)
Выравнивание : Разделение по промежуткам
Продолжительность промежутка : 42 мс. (1,00 видеокадр)
Время предзагрузки промежутка : 500 мс.

pb.wtf



Скачать Из пекла через торрент https://pic.kartinco.top/images/6/jbcij.jpg Скачать фильм Из пекла через торрент бесплантно в хорошем качестве Описание: Когда Родни Бэйз таинственно исчезает, а правоохранительные органы при этом действуют недостаточно быстро, его старший брат ... 9.2 10 24
Info! Золотая раздача, скачанное не засчитывается.
Торрент: Зарегистрирован [2014-08-05 16:40] · скачан: 672 раз
Статус: √ проверено
Размер: 1.45 GB
Как cкачать? Как скачать Из пекла через торрент | UTorrent

% Раздел Тема Автор DL S | L
Фильмы с авторской озвучкой [ 1.47 GB ] Из пекла / Out of the Furnace [2013 BDRip-AVC) AVO [Д.Есарев] potroks Скачать
1 | 0
T Фильмы 2013 [DVDrip, WEB-DLRip, HDrip] [ 3.24 GB ] Из пекла / Out of the Furnace [ 2013 BDRip-AVC ]DVO+Английский GEKADOL Скачать
1 | 0
Фильмы (Blu-ray, BD-Remux, HDDVD) [ 30.46 GB ] Из пекла / Out of the Furnace [2013 BDRemux Любительский Ворон Скачать
1 | 0
Фильмы 2013 [DVDrip, WEB-DLRip, HDrip] [ 1.37 GB ] Из пекла / Out of the Furnace [2013 HDRipЛюбительский Ворон Скачать
1 | 0

28-11-2019 20:33  

Отключить всю рекламу на сайте

05-08-2014 17:14 Из пекла Скачать торрент  

Смотрел. Норм киноpb.wtf



05-08-2014 17:45 Из пекла Скачать торрент  

Да, фильм хороший, мне понравился 8/10pb.wtf



05-08-2014 18:43 Из пекла Скачать торрент  

Спасибо,думаю фильм хороший!pb.wtf



05-08-2014 18:55 Из пекла Скачать торрент  

чумовой саундтрек к фильмандосуpb.wtf



09-08-2014 08:34 Из пекла Скачать торрент  

Название файла на русском без транслита и т.п.
спасибо релизеру.pb.wtf



19-08-2014 15:14 Из пекла Скачать торрент  

будем брать, спасибоpb.wtf



    Дорогой пользователь! Огромная просьба, поблагодарите релизера, оцените раздачу и оставьте свои комментарий, если Вы скачали Из пекла через торрент бесплатно! Внесите свою лепту в развитие PiratBit!
    Комментировать посты могут только пользователи прошедшие не сложную регистрацию
    Показать сообщения:    

    Из пекла через торрент
    Скачать бесплатно Из пекла
    Из пекла скачать торрент
    Из пекла смотреть онлайн
    Cкачать фильм Из пекла бесплатно
    Из пекла скачать торрент в хорошем качестве
    Из пекла смотреть онлайн бесплатно в хорошем качестве


    Вы не можете начинать темы
    Вы не можете отвечать на сообщения
    Вы не можете редактировать свои сообщения
    Вы не можете удалять свои сообщения
    Вы не можете голосовать в опросах
    Вы не можете прикреплять файлы к сообщениям
    Вы можете скачивать файлы