Всегда рабочее зеркало без VPN и Proxy просто перед .vidak.icu напиши любое слово или цифру, Пример http://5eiw.vidak.icu

MVO

2 сезон

2 сезон

1

1 сезон

iTunes

2 сезон

13

1 сезон

Распродажа

pack

Рекомендуем

Пиратка

30

ВАЖНО

RePack

MK11

RePack

jed

RePack

fifa19

RePack

RDR2

RePack

NEED FOR SPEED™ PAYBACK

Кинопоиск HD

6 сезон

 Острые козырьки 6 сезон

Все сериалы

все сериалы на PB.wtf

RePack

FAR CRY 5

Anonymous, нам критически не хватает 5601 руб. на оплату серверов и переферии за Апрель, помоги нам пожалуйста, вся надежда только на тебя. В благодарность мы отключим тебе всю рекламу на сайте!

×
  
Magnet ссылка

Теорема Зеро / The Zero Theorem (Терри Гиллиам) [2014 г., фантастика, триллер, драма, комедия, HDRip-AVC, Дубляж, Чистый звук] От R.G. PiratFilms pb.wtf

Теорема Зеро через торрент pb.wtf

Размер: 1.37 GB | Добавлен: 7 лет 9 мес. назад | Торрент скачан:820 раз
Смотреть онлайн Теорема Зеро | Скачать    Ребята, помогите собрать деньги на оплату серверов!!!

05-08-2014 17:12 Теорема Зеро Скачать торрент  

Теорема Зеро / The Zero TheoremГод выпуска: 2014
Страна: США, Румыния, Великобритания, Франция
Жанр: фантастика, триллер, драма, комедия
Продолжительность: 01:46:38
Перевод: Дубляж, Чистый звук

Режиссер: Терри Гиллиам

В ролях: Кристоф Вальц, Мелани Тьерри, Дэвид Тьюлис, Лукас Хеджес, Мэтт Дэймон, Бен Уишоу, Тильда Суинтон, Санджив Бхаскар, Ингрид Бису, Маргарита Дойл

Описание: Эксцентричный компьютерный гений Коэн Лет бьется над неразрешимой теоремой. Благодаря костюму для виртуальной реальности, изобретенному мальчиком Бобом, Лету удается совершить путешествие в скрытое пространство и узнать тайну своей души. Эту разгадку ищет не только он сам, но и таинственный Менеджмент, который правит всем миром посредством всевидящих устройств под названием ManCams.

Качество: HDRip-AVC
Исходник :BDRip 1080р
Формат: MKV
Видео кодек: AVC
Аудио кодек: MP3
Видео: AVC, 1024x554 (16:9), 23.976 fps, 1 515 Kbps (0.111 bit/pixel)
Аудио: MP3, 44.1 KHz, 2 ch, 320 Kbps, CBR
Релиз от:
скриншот   скриншот   скриншот   скриншот   скриншот   скриншот  

Код:

---[Information] [05.08.2014 2:45:29] x264 [info]: frame I:1092  Avg QP:16.95  size: 70291  PSNR Mean Y:46.67 U:49.20 V:50.32 Avg:47.44 Global:46.83
---[Information] [05.08.2014 2:45:29] x264 [info]: frame P:30273 Avg QP:20.13  size: 18862  PSNR Mean Y:44.60 U:47.83 V:48.55 Avg:45.44 Global:44.68
---[Information] [05.08.2014 2:45:29] x264 [info]: frame B:122023 Avg QP:22.52  size:  4616  PSNR Mean Y:43.85 U:47.53 V:48.25 Avg:44.77 Global:43.92
---[Information] [05.08.2014 2:45:29] x264 [info]: consecutive B-frames:  1.2%  2.6%  3.7% 18.6% 14.8% 39.3%  8.3%  7.9%  1.6%  0.6%  0.3%  0.6%  0.4%

Общее
Уникальный идентификатор                 : 179271599662432425088341196396232295816 (0x86DE74463DF400B2961A2CF20E11C588)
Полное имя                               : D:\рипы От R.G. PiratFilms\Teorema.Zero.2014..HDRip-AVC.by.White Smoke.R.G. PiratFilms.mkv
Формат                                   : Matroska
Версия формата                           : Version 4 / Version 2
Размер файла                             : 1,37 Гбайт
Продолжительность                        : 1 ч. 46 м.
Общий поток                              : 1836 Кбит/сек
Дата кодирования                         : UTC 2014-08-05 15:07:45
Программа кодирования                    : mkvmerge v6.8.0 ('Theme for Great Cities') 64bit built on Mar  2 2014 21:34:26
Библиотека кодирования                   : libebml v1.3.0 + libmatroska v1.4.1

Видео
Идентификатор                            : 1
Формат                                   : AVC
Формат/Информация                        : Advanced Video Codec
Профиль формата                          : High@L4.1
Параметр CABAC формата                   : Да
Параметр ReFrames формата                : 12 кадров
Идентификатор кодека                     : V_MPEG4/ISO/AVC
Продолжительность                        : 1 ч. 46 м.
Битрейт                                  : 1515 Кбит/сек
Ширина                                   : 1024 пикселя
Высота                                   : 554 пикселя
Соотношение сторон                       : 1,85:1
Режим частоты кадров                     : Постоянный
Частота кадров                           : 23,976 кадра/сек
Цветовое пространство                    : YUV
Субдискретизация насыщенности            : 4:2:0
Битовая глубина                          : 8 бит
Тип развёртки                            : Прогрессивная
Бит/(Пиксели*Кадры)                      : 0.111
Размер потока                            : 1,10 Гбайт (81%)
Библиотека кодирования                   : x264 core 142 r2431 ac76440
Настройки программы                      : cabac=1 / ref=12 / deblock=1:-3:-3 / analyse=0x3:0x113 / me=hex / subme=7 / psy=1 / psy_rd=1.00:0.00 / mixed_ref=1 / me_range=16 / chroma_me=1 / trellis=1 / 8x8dct=1 / cqm=0 / deadzone=21,11 / fast_pskip=1 / chroma_qp_offset=-2 / threads=12 / lookahead_threads=4 / sliced_threads=0 / nr=0 / decimate=1 / interlaced=0 / bluray_compat=0 / constrained_intra=0 / bframes=12 / b_pyramid=2 / b_adapt=2 / b_bias=12 / direct=1 / weightb=1 / open_gop=0 / weightp=2 / keyint=240 / keyint_min=23 / scenecut=40 / intra_refresh=0 / rc_lookahead=40 / rc=2pass / mbtree=1 / bitrate=1515 / ratetol=1.0 / qcomp=0.65 / qpmin=0 / qpmax=69 / qpstep=4 / cplxblur=20.0 / qblur=0.5 / ip_ratio=1.40 / aq=1:1.00
Язык                                     : English
Default                                  : Да
Forced                                   : Нет

Аудио
Идентификатор                            : 2
Формат                                   : MPEG Audio
Версия формата                           : Version 1
Профиль формата                          : Layer 3
Идентификатор кодека                     : A_MPEG/L3
Идентификатор кодека/Подсказка           : MP3
Продолжительность                        : 1 ч. 46 м.
Вид битрейта                             : Постоянный
Битрейт                                  : 320 Кбит/сек
Каналы                                   : 2 канала
Частота                                  : 44,1 КГц
Метод сжатия                             : С потерями
Размер потока                            : 244 Мбайт (17%)
Default                                  : Да
Forced                                   : Нет


После релиза лицензии обновлю раздачу pb.wtf



Скачать Теорема Зеро через торрент https://pic.kartinco.top/new/img/2014-08/05/ypayelm20mtowyxui5v3e0u1b.png Скачать, смотреть онлайн Теорема Зеро бесплантно в хорошем качестве Описание: Эксцентричный компьютерный гений Коэн Лет бьется над неразрешимой теоремой. Благодаря костюму для виртуальной реальности, ... 9.5 10 25
Info! Золотая раздача, скачанное не засчитывается.
Торрент: Зарегистрирован [2014-08-05 17:12] · скачан: 820 раз
Статус: T временная
Размер: 1.37 GB
Как cкачать? Как скачать Теорема Зеро через торрент | UTorrent

% Раздел Тема Автор DL S | L
Фильмы [HD 720p, 1080p] (Хороший звук DUB, MVO) [ 6.69 GB ] Теорема Зеро / The Zero Theorem [2013 Румыния BDRip 720p] + AVO [Ю.Сербин] +Original + Subs от R.G. PiratFilms Messa-fan Скачать
1 | 0


Последний раз редактировалось: White Smoke (2014-08-05 17:53), всего редактировалось 1 раз

28-11-2019 20:33  

Отключить всю рекламу на сайте

05-08-2014 17:39 Теорема Зеро Скачать торрент  

как фильм ?pb.wtf



05-08-2014 18:31 Теорема Зеро Скачать торрент  

WORSTER, я фильм не осилил и удалил!pb.wtf



06-08-2014 16:02 Теорема Зеро Скачать торрент  

начало заинтересовало -что то похоже с человека дождя и газонакосильщиком.понравился переделаный дом из сгоревшего монастыря вкотором напичкали всяких гаджетов (контраст интересный) и онлайн в зависимости фантазий как 100 % заменитель реальности.в целом фильм хорош думаю не для каждого толькоpb.wtf





Последний раз редактировалось: kpuctaluk (2014-08-09 03:38), всего редактировалось 1 раз

07-08-2014 02:26 Теорема Зеро Скачать торрент  

еще тот вынос мозга-не осилил этот артхаусpb.wtf



08-08-2014 20:14 Теорема Зеро Скачать торрент  

Посмотрел... долго пытался понять что же я увидел... хрень редкостная... :shoot2: :ireful:pb.wtf



13-08-2014 09:31 Теорема Зеро Скачать торрент  

Ужас!!! Осилил только 10 минутpb.wtf



20-09-2014 16:29 Теорема Зеро Скачать торрент  

Авторское кино что ли? Тогда воздержусь.pb.wtf



30-09-2014 16:24 Теорема Зеро Скачать торрент  

фильм ШЕДЕВР и здесь озвучка лучше , чем в лицензии.pb.wtf



01-10-2014 12:38 Теорема Зеро Скачать торрент  

argud79 писал(а):

фильм ШЕДЕВР и здесь озвучка лучше , чем в лицензии.

поверю пожалуй. спасибо за подсказку. скачаю, глянуpb.wtf



02-10-2014 07:35 Теорема Зеро Скачать торрент  

Мнения не однозначные,придется качатьpb.wtf



04-01-2015 11:20 Теорема Зеро Скачать торрент  

То чего курили режиссёр и автор книги-у нас не выращивают pb.wtf



    Дорогой пользователь! Огромная просьба, поблагодарите релизера, оцените раздачу и оставьте свои комментарий, если Вы скачали Теорема Зеро через торрент бесплатно!
    Комментировать посты могут только пользователи прошедшие не сложную регистрацию
    Показать сообщения:    

    Теорема Зеро через торрент
    Скачать бесплатно Теорема Зеро
    Теорема Зеро скачать торрент
    Теорема Зеро смотреть онлайн
    Cкачать фильм Теорема Зеро бесплатно
    Теорема Зеро скачать торрент в хорошем качестве
    Теорема Зеро смотреть онлайн бесплатно в хорошем качестве


    Вы не можете начинать темы
    Вы не можете отвечать на сообщения
    Вы не можете редактировать свои сообщения
    Вы не можете удалять свои сообщения
    Вы не можете голосовать в опросах
    Вы не можете прикреплять файлы к сообщениям
    Вы можете скачивать файлы