Ссылка на приватное зеркало нашего сайта всего за 1$. Внимание количество ограничено!!!

2 сезон

iTunes

1 сезон

1

iTunes

iTunes

iTunes

1 сезон

RePack

30

ИГРА 18+

pack

ВАЖНО

!!Акция!!

Alien_RageХит недели

RePack

MK11
pack

Забери бонус

RePack

jed

!!Акция!!

Alien_Rage

RePack

fifa19

RePack

Assassins Creed: Odyssey

RePack

NEED FOR SPEED™ PAYBACK

4 сезон

9 сезон

Бесстыжие 9 сезон

Все сериалы

все сериалы на PB.wtf

RePack

FAR CRY 5
  

Бэтмен: Нападение на Аркхэм / Batman: Assault on Arkham (Джей Олива , Этан Сполдинг ) [2014, США, мультфильм, HDRip, MVO [Студия Saint Sound] pb.wtf

Бэтмен: Нападение на Аркхэм через торрент pb.wtf

Размер: 698 MB | Добавлен: 6 лет 2 мес. назад | Торрент скачан:289 раз
Скачать  

05-08-2014 17:25 Бэтмен: Нападение на Аркхэм Скачать торрент  


Бэтмен: Нападение на Аркхэм / Batman: Assault on Arkham

«Get ready to root for the bad guys»

Год выпуска:2014
Страна:США
Жанр:мультфильм, боевик, триллер, криминал
Продолжительность:01:15:56
Перевод:Любительский многоголосый [Студия Saint Sound]
Режиссер:Джей Олива / Jay Oliva, Этан Сполдинг / Ethan Spaulding
В ролях:

Кевин Конрой (Batman / Bruce Wayne / озвучка), Нил МакДонаф (Deadshot / Floyd Lawton / озвучка), Хинден Уолш (Harley Quinn / Harleen Quinzel / озвучка), Мэттью Грей Гублер (The Riddler / Edward Nigma / озвучка), Трой Бэйкер (The Joker / озвучка), Эрик Бауза (Security Guy, озвучка), Крис Кокс (G.C.P.D. Commissioner James Gordon, озвучка), Джон Ди Маджио (King Shark / Nanaue / Bane / озвучка), Джанкарло Эспозито (Black Spider / Eric Needham / озвучка), Дженнифер Хейл (Killer Frost / Louise Lincoln / озвучка), Мартин Джарвис (Alfred Pennyworth / озвучка), Питер Джессоп (Watch Commander, озвучка)
  • Описание:
    Секретная правительственная организация формирует спец группу «Суицидальный отряд», состоящую из наемников и убийц, чтобы проникнуть в психиатрическую лечебницу Аркхам и добыть похищенную, засекреченную информацию, из рук заключенного - Эдварда Нигмы «Загадочника».


    Качество:HDRip
    Формат:AVI
    Видео кодек: XviD
    Аудио кодек:MP3
    Видео: XviD, 640x352 (16:9), 1147 kbps, 23,976 fps, 0,213 bpp
    Аудио: MP3 / 2.0 / 48 kHz / 128 kbps /

    Код:

    General
    Complete name                            : D:\Торенты\Batman.Assault.on.Arkham.2014.L.HDRip.700M.avi
    Format                                   : AVI
    Format/Info                              : Audio Video Interleave
    File size                                : 698 MiB
    Duration                                 : 1h 15mn
    Overall bit rate                         : 1 285 Kbps
    Writing application                      : VirtualDubMod 1.5.10.3 | www.virtualdub-fr.org || (build 2550/release)
    Writing library                          : VirtualDubMod build 2550/release

    Video
    ID                                       : 0
    Format                                   : MPEG-4 Visual
    Format profile                           : Advanced Simple@L5
    Format settings, BVOP                    : 2
    Format settings, QPel                    : No
    Format settings, GMC                     : No warppoints
    Format settings, Matrix                  : Default (MPEG)
    Codec ID                                 : XVID
    Codec ID/Hint                            : XviD
    Duration                                 : 1h 15mn
    Bit rate                                 : 1 148 Kbps
    Width                                    : 640 pixels
    Height                                   : 352 pixels
    Display aspect ratio                     : 16:9
    Frame rate                               : 23.976 fps
    Color space                              : YUV
    Chroma subsampling                       : 4:2:0
    Bit depth                                : 8 bits
    Scan type                                : Progressive
    Compression mode                         : Lossy
    Bits/(Pixel*Frame)                       : 0.213
    Stream size                              : 623 MiB (89%)
    Writing library                          : XviD 1.2.1 (UTC 2008-12-04)

    Audio
    ID                                       : 1
    Format                                   : MPEG Audio
    Format version                           : Version 1
    Format profile                           : Layer 3
    Mode                                     : Joint stereo
    Mode extension                           : MS Stereo
    Codec ID                                 : 55
    Codec ID/Hint                            : MP3
    Duration                                 : 1h 15mn
    Bit rate mode                            : Constant
    Bit rate                                 : 128 Kbps
    Channel(s)                               : 2 channels
    Sampling rate                            : 48.0 KHz
    Compression mode                         : Lossy
    Stream size                              : 69.5 MiB (10%)
    Alignment                                : Aligned on interleaves
    Interleave, duration                     : 42 ms (1.00 video frame)
    Interleave, preload duration             : 504 ms


    Скриншоты:

    Каталог Новинок (Фильмы-трейлеры, Игры, Сериалы, Мультфильмы)
    © Оформление by Raven
    pb.wtf



  • Скачать Бэтмен: Нападение на Аркхэм через торрент http://pic.kartinco.top/images/6/ordi9.jpg Скачать фильм Бэтмен: Нападение на Аркхэм через торрент бесплантно в хорошем качестве Описание:Секретная правительственная организация формирует спец группу «Суицидальный отряд», состоящую из наемников и убийц, чтобы ... 10 10 9
    Торрент: Зарегистрирован [2014-08-05 17:25] · скачан: 289 раз
    Статус: √ проверено
    Размер: 698 MB
    Как cкачать? Как скачать Бэтмен: Нападение на Аркхэм через торрент | qTorrent

    % Раздел Тема Автор DL S | L
    Зарубежные Мультфильмы (BDRip 1080p, 720p, Blu-ray, BD-Remux) [ 4.32 GB ] Бэтмен: Нападение на Аркхэм / Batman: Assault on Arkham [2014 мультфильм BDRip 720p MVO [Студия Saint Sound] Ворон Скачать
    1 | 0
    T Иностранные мультфильмы [ 712 MB ] Бэтмен: Нападение на Аркхэм / Batman: Assault on Arkham [2014 мультфильм BDRip многоголосый] makarevich Скачать
    1 | 0
    T Иностранные мультфильмы [ 1.33 GB ] Бэтмен: Нападение на Аркхэм / Batman: Assault on Arkham [2014 Мультфильм HDRip многоголосый [Line] Anonymous Скачать
    1 | 0
    Иностранные мультфильмы [ 1.47 GB ] Бэтмен: Нападение на Аркхэм / Batman: Assault on Arkham [2014 мультфильм HDRip Любительский многоголосый закадровый "Kapets's Studios"] coc900 Скачать
    1 | 0
    Иностранные мультфильмы [ 1.37 GB ] Бэтмен: Нападение на Аркхэм / Batman: Assault on Arkham [2014 мультфильм HDRip MVO [Студия Saint Sound] Ворон Скачать
    1 | 0

    28-11-2019 20:33  

    Отключить всю рекламу на сайте

      Дорогой пользователь! Огромная просьба, поблагодарите релизера, оцените раздачу и оставьте свои комментарий, если Вы скачали Бэтмен: Нападение на Аркхэм через торрент бесплатно! Внесите свою лепту в развитие PiratBit!
      Комментировать посты могут только пользователи прошедшие не сложную регистрацию
      Показать сообщения:    

      Бэтмен: Нападение на Аркхэм через торрент
      Скачать бесплатно Бэтмен: Нападение на Аркхэм
      Бэтмен: Нападение на Аркхэм скачать торрент
      Бэтмен: Нападение на Аркхэм смотреть онлайн
      Cкачать фильм Бэтмен: Нападение на Аркхэм бесплатно
      Бэтмен: Нападение на Аркхэм скачать торрент в хорошем качестве
      Бэтмен: Нападение на Аркхэм смотреть онлайн бесплатно в хорошем качестве


      Вы не можете начинать темы
      Вы не можете отвечать на сообщения
      Вы не можете редактировать свои сообщения
      Вы не можете удалять свои сообщения
      Вы не можете голосовать в опросах
      Вы не можете прикреплять файлы к сообщениям
      Вы можете скачивать файлы