2 сезон

iTunes

MVO

1

2 сезон

iTunes

iTunes

1 сезон

RePack

30

Новинка

ВАЖНО

ИГРА 18+

pack

RePack

MK11
pack

Легкие деньги

RePack

jed

RePack

fifa19

RePack

RDR2

RePack

NEED FOR SPEED™ PAYBACK

4 сезон

9 сезон

Бесстыжие 9 сезон

Все сериалы

все сериалы на PB.wtf

RePack

FAR CRY 5

Anonymous, доброй ночи, мы не успеваем собрать деньги на оплату серверов за декабрь и январь, помогите нам пожалуйста в это трудное время. В качестве благодарности мы отключим Вам всю рекламу на сайте (укажите свой ник в строку Ваше имя)!

×
  
Magnet ссылка

Дело в тебе / A Case of You (Кэт Койро / Kat Coiro) [2013, США, мелодрама, комедия, HDRip,Профессиональный (многоголосый, закадровый) pb.wtf

Дело в тебе через торрент pb.wtf

Размер: 1.37 GB | Добавлен: 6 лет 5 мес. назад | Торрент скачан:558 раз
Скачать  

01-06-2014 11:54 Дело в тебе Скачать торрент  


Дело в тебе / A Case of You
«He'll be everything she likes but himself»

Год выпуска: 2013
Страна:США
Жанр:мелодрама, комедия
Продолжительность:01:31:32
Перевод:Профессиональный (многоголосый, закадровый)
Субтитры: Нет
Режиссер: Кэт Койро / Kat Coiro

  • В ролях:

    Джастин Лонг (Sam), Эван Рэйчел Вуд (Birdie), Кейр О’Доннелл (Eliot), Бизи Филиппс (Ashley), Сиенна Миллер (Sarah), Питер Динклэйдж (Gerard), Брендан Фрейзер (Tony), Сэм Рокуэлл (Gary), Винс Вон (Alan), Питер Биллингсли (Scott), Мицуо Пек (Jemily), Линн Коэн (Harriet)

  • Описание:
    Фильм о том, как парень изучил анкету девушки и пытался стать ее идеальным мужчиной, делая все, что указано в ее профиле, чтобы понравиться ей.

  • Мировая премьера:21 апреля 2013


      Качество: HDRip
      Формат: AVI
      Видео кодек: XviD
      Аудио кодек:AC3
      Видео: XviD, 720x304 (2.35:1), 1680 kbps, 23,976 fps, 0,320 bpp
      Аудио: AC3 / 5.1 / 48 kHz / 448 kbps / 16 bit


    Код:

    General
    Complete name                            : D:\Торенты\A.Case.of.You.2013.P.HDRip.1400Mb.avi
    Format                                   : AVI
    Format/Info                              : Audio Video Interleave
    File size                                : 1.37 GiB
    Duration                                 : 1h 31mn
    Overall bit rate                         : 2 138 Kbps
    Writing application                      : VirtualDubMod 1.5.10.2 (build 2540/release)
    Writing library                          : VirtualDubMod build 2540/release

    Video
    ID                                       : 0
    Format                                   : MPEG-4 Visual
    Format profile                           : Advanced Simple@L5
    Format settings, BVOP                    : 2
    Format settings, QPel                    : No
    Format settings, GMC                     : No warppoints
    Format settings, Matrix                  : Custom
    Codec ID                                 : XVID
    Codec ID/Hint                            : XviD
    Duration                                 : 1h 31mn
    Bit rate                                 : 1 681 Kbps
    Width                                    : 720 pixels
    Height                                   : 304 pixels
    Display aspect ratio                     : 2.35:1
    Frame rate                               : 23.976 fps
    Color space                              : YUV
    Chroma subsampling                       : 4:2:0
    Bit depth                                : 8 bits
    Scan type                                : Progressive
    Compression mode                         : Lossy
    Bits/(Pixel*Frame)                       : 0.320
    Stream size                              : 1.07 GiB (79%)
    Writing library                          : XviD 1.2.1 (UTC 2008-12-04)

    Audio
    ID                                       : 1
    Format                                   : AC-3
    Format/Info                              : Audio Coding 3
    Mode extension                           : CM (complete main)
    Codec ID                                 : 2000
    Duration                                 : 1h 31mn
    Bit rate mode                            : Constant
    Bit rate                                 : 448 Kbps
    Channel(s)                               : 6 channels
    Channel positions                        : Front: L C R, Side: L R, LFE
    Sampling rate                            : 48.0 KHz
    Bit depth                                : 16 bits
    Compression mode                         : Lossy
    Stream size                              : 293 MiB (21%)
    Alignment                                : Split accross interleaves
    Interleave, duration                     : 42 ms (1.00 video frame)
    Interleave, preload duration             : 500 ms

    Скриншоты:

    Каталог Новинок (Фильмы-трейлеры, Игры, Сериалы, Мультфильмы)

    © Оформление by Raven
    pb.wtf



  • Скачать Дело в тебе через торрент https://pic.kartinco.top/images/6/stazu.jpg Скачать фильм Дело в тебе через торрент бесплантно в хорошем качестве Описание:Фильм о том, как парень изучил анкету девушки и пытался стать ее идеальным мужчиной, делая все, что указано в ее профиле, чтобы ... 9.5 10 21
    Торрент: Зарегистрирован [2014-08-06 20:18] · скачан: 558 раз
    Статус: √ проверено
    Размер: 1.37 GB
    Как cкачать? Как скачать Дело в тебе через торрент | UTorrent

    28-11-2019 20:33  

    Отключить всю рекламу на сайте

      Дорогой пользователь! Огромная просьба, поблагодарите релизера, оцените раздачу и оставьте свои комментарий, если Вы скачали Дело в тебе через торрент бесплатно! Внесите свою лепту в развитие PiratBit!
      Комментировать посты могут только пользователи прошедшие не сложную регистрацию
      Показать сообщения:    

      Дело в тебе через торрент
      Скачать бесплатно Дело в тебе
      Дело в тебе скачать торрент
      Дело в тебе смотреть онлайн
      Cкачать фильм Дело в тебе бесплатно
      Дело в тебе скачать торрент в хорошем качестве
      Дело в тебе смотреть онлайн бесплатно в хорошем качестве


      Вы не можете начинать темы
      Вы не можете отвечать на сообщения
      Вы не можете редактировать свои сообщения
      Вы не можете удалять свои сообщения
      Вы не можете голосовать в опросах
      Вы не можете прикреплять файлы к сообщениям
      Вы можете скачивать файлы