2 сезон

iTunes

MVO

1

2 сезон

iTunes

1 сезон

1 сезон

RePack

30

Новинка

ВАЖНО

ИГРА 18+

pack

RePack

MK11
pack

Легкие деньги

RePack

jed

RePack

fifa19

RePack

RDR2

RePack

NEED FOR SPEED™ PAYBACK

4 сезон

9 сезон

Бесстыжие 9 сезон

Все сериалы

все сериалы на PB.wtf

RePack

FAR CRY 5

Anonymous, добрый вечер, мы не успеваем собрать деньги на оплату серверов за декабрь и январь, помогите нам пожалуйста в это трудное время. В качестве благодарности мы отключим Вам всю рекламу на сайте (укажите свой ник в строку Ваше имя)!

×
  
Magnet ссылка

Поддубный (Глеб Орлов) [2014 г., драма, спорт, биография, WEB-DLRip, Оригинал] pb.wtf

Поддубный через торрент pb.wtf

Размер: 873 MB | Добавлен: 6 лет 5 мес. назад | Торрент скачан:105 раз
Скачать  

07-08-2014 16:11 Поддубный Скачать торрент  

Поддубный

Год выпуска: 2014
Страна: Россия
Выпущено: Канал Россия, Красная стрела, Студия Тритэ
Жанр: драма, спорт, биография
Продолжительность: 02:02:37
Перевод: Оригинал

Режиссер: Глеб Орлов
Продюссер: Вадим Горяинов, Леонид Верещагин, Леонид Лебедев
Сценарий: Юрий Коротков
Бюджет: $5 926 309
Премьера в мире: 10 июля 2014

IMDB 7.60 (53)


В ролях: Михаил Пореченков, Дени Лаван, Владимир Ильин, Юрий Колокольников, Роман Мадянов, Александр Михайлов, Катерина Шпица, Максим Сапрыкин, Петр Крылов, Андрей Дебрин

Описание: Его называли Чемпион чемпионов. О силе и волевом характере Поддубного слагали легенды. И в 50 великий борец играючи одолевал молодых атлетов, а вопросах чести и справедливости не знал компромиссов. И лишь любовь смогла уложить Русского Богатыря на обе лопатки...



Качество: WEB-DLRip
Формат: MP4
Видео кодек: AVC
Аудио кодек: AAC LC
Видео: AVC, 640x272 (2.35:1), 24.000 fps, 861 Kbps (0.206 bit/pixel)
Аудио: AAC LC, 48.0 KHz, 2 ch, 128 Kbps, VBR
x264 [info]: profile High, level 4.1
x264 [info]: frame I:1586 Avg QP:14.00 size: 43517
x264 [info]: frame P:46609 Avg QP:17.57 size: 9809
x264 [info]: frame B:128387 Avg QP:21.64 size: 2069
x264 [info]: consecutive B-frames: 2.3% 6.7% 5.2% 69.1% 4.8% 6.8% 0.5% 2.0% 1.2% 0.1% 0.0% 0.1% 0.1% 0.9% 0.3%
x264 [info]: ref P L0: 59.8% 11.6% 11.7% 5.3% 3.3% 3.0% 2.2% 1.5% 1.5% 0.1% 0.0%
x264 [info]: ref B L0: 83.8% 7.2% 4.1% 1.7% 1.4% 0.9% 0.6% 0.2%
x264 [info]: ref B L1: 94.8% 5.2%
x264 [info]: kb/s:861.02
Сэмпл
Format : AVC
Format/Info : Advanced Video Codec
Format profile : High@L4.1
Format settings, CABAC : Yes
Format settings, ReFrames : 9 frames
Codec ID : avc1
Codec ID/Info : Advanced Video Coding
Duration : 2h 2mn
Source duration : 56s 145ms
Bit rate : 861 Kbps
Width : 640 pixels
Height : 272 pixels
Display aspect ratio : 2.35:1
Frame rate mode : Constant
Frame rate : 24.000 fps
Color space : YUV
Chroma subsampling : 4:2:0
Bit depth : 8 bits
Scan type : Progressive
Bits/(Pixel*Frame) : 0.206
Stream size : 755 MiB (87%)
Source stream size : 755 MiB (87%)
Writing library : x264 core 130 r2273 b3065e6
Encoding settings : cabac=1 / ref=9 / deblock=1:0:0 / analyse=0x3:0x133 / me=umh / subme=9 / psy=1 / psy_rd=1.00:0.00 / mixed_ref=1 / me_range=24 / chroma_me=1 / trellis=1 / 8x8dct=1 / cqm=0 / deadzone=21,11 / fast_pskip=1 / chroma_qp_offset=-2 / threads=3 / lookahead_threads=1 / sliced_threads=0 / nr=0 / decimate=1 / interlaced=0 / bluray_compat=0 / constrained_intra=0 / bframes=14 / b_pyramid=2 / b_adapt=2 / b_bias=0 / direct=3 / weightb=1 / open_gop=0 / weightp=2 / keyint=250 / keyint_min=23 / scenecut=40 / intra_refresh=0 / rc_lookahead=60 / rc=crf / mbtree=1 / crf=18.0 / qcomp=0.60 / qpmin=0 / qpmax=69 / qpstep=4 / ip_ratio=1.40 / aq=1:1.00
mdhd_Duration : 7357589

Audio
ID : 2
Format : AAC
Format/Info : Advanced Audio Codec
Format profile : LC
Codec ID : 40
Duration : 2h 2mn
Bit rate mode : Variable
Bit rate : 128 Kbps
Channel(s) : 2 channels
Channel positions : Front: L R
Sampling rate : 48.0 KHz
Compression mode : Lossy
Delay relative to video : 83ms
Stream size : 112 MiB (13%)
pb.wtf



Скачать Поддубный через торрент http://i66.fastpic.ru/big/2014/0807/90/1d1245d179cf9869a37f1d4bea534490.png Скачать фильм Поддубный через торрент бесплантно в хорошем качестве Описание: Его называли Чемпион чемпионов. О силе и волевом характере Поддубного слагали легенды. И в 50 великий борец играючи одолевал ... 10 10 3
Торрент: Зарегистрирован [2014-08-07 16:11] · скачан: 105 раз
Статус: √ проверено
Размер: 873 MB
Как cкачать? Как скачать Поддубный через торрент | UTorrent

% Раздел Тема Автор DL S | L
Наши фильмы (Blu-ray, BD-Remux, HDDVD) [ 16.74 GB ] Поддубный [2014 биография BD-Remux 1080i Оригинал] лицензия Бумер Скачать
1 | 0
Документальные фильмы и телепередачи [ 372 MB ] Специальный корреспондент: Пальмира [2016 Россия авторский SATRip-AVC от AVP Studio] AVP Studio Скачать
1 | 0
Документальные фильмы и телепередачи [ 373 MB ] Специальный корреспондент: Пальмира [2016 Россия авторский SATRip от AVP Studio] AVP Studio Скачать
1 | 0
Наши фильмы 2014 [ 2.18 GB ] Поддубный [2014 биография BDRip] от HQ-ViDEO / Mr. Freeman Скачать
2 | 0
Наши фильмы 2014 [ 747 MB ] Поддубный [2014 Россия биография BDRip-AVC] sokol_ok Скачать
2 | 0
Наши фильмы 2014 [ 1.46 GB ] Поддубный [2014 биография BDRip-AVC] [] potroks Скачать
1 | 0
Наши фильмы 2014 [ 1.46 GB ] Поддубный [2014 Россия биография BDRip-AVC] sokol_ok Скачать
2 | 0

28-11-2019 20:33  

Отключить всю рекламу на сайте


    Дорогой пользователь! Огромная просьба, поблагодарите релизера, оцените раздачу и оставьте свои комментарий, если Вы скачали Поддубный через торрент бесплатно! Внесите свою лепту в развитие PiratBit!
    Комментировать посты могут только пользователи прошедшие не сложную регистрацию
    Показать сообщения:    

    Поддубный через торрент
    Скачать бесплатно Поддубный
    Поддубный скачать торрент
    Поддубный смотреть онлайн
    Cкачать фильм Поддубный бесплатно
    Поддубный скачать торрент в хорошем качестве
    Поддубный смотреть онлайн бесплатно в хорошем качестве


    Вы не можете начинать темы
    Вы не можете отвечать на сообщения
    Вы не можете редактировать свои сообщения
    Вы не можете удалять свои сообщения
    Вы не можете голосовать в опросах
    Вы не можете прикреплять файлы к сообщениям
    Вы можете скачивать файлы