Всегда рабочее зеркало без VPN и Proxy просто перед .vidak.icu напиши любое слово или цифру, Пример http://bcsd.vidak.icu

MVO

2 сезон

1 сезон

1

1 сезон

iTunes

2 сезон

13

1 сезон

Deluxe

pack

Рекомендуем

Пиратка

30

ВАЖНО

RePack

MK11

RePack

jed

RePack

fifa19

RePack

RDR2

RePack

NEED FOR SPEED™ PAYBACK

Кинопоиск HD

6 сезон

 Острые козырьки 6 сезон

Все сериалы

все сериалы на PB.wtf

RePack

FAR CRY 5

Anonymous, нам критически не хватает 5601 руб. на оплату серверов и переферии за Апрель, помоги нам пожалуйста, вся надежда только на тебя. В благодарность мы отключим тебе всю рекламу на сайте!

×
  
Magnet ссылка

3 дня на убийство / 3 Days to Kill (МакДжи / McG) [2014, боевик, криминал, триллер, BDRip 1080p, Дублированный, Лицензия] от R.G. HD-Films pb.wtf

3 дня на убийство через торрент pb.wtf

Размер: 13.25 GB | Добавлен: 7 лет 9 мес. назад | Торрент скачан:106 раз
Смотреть онлайн 3 дня на убийство | Скачать    Ребята, помогите собрать деньги на оплату серверов!!!

07-08-2014 20:10 3 дня на убийство Скачать торрент  

3 дня на убийство / 3 Days to Kill



Год выпуска: 2014
Страна: Франция, США
Жанр: боевик, криминал, триллер, драма, комедия
Продолжительность: 01:57:02
Перевод: Дублированный [Лицензия]
Субтитры: Русские (Full), Английские (SDH)



Режиссер:
  • МакДжи / McG
В ролях:
  • Кевин Костнер, Эмбер Хёрд, Хейли Стайнфелд, Конни Нильсен, Томас Лемаркус, Рихард Заммель, Марк Андреони, Бруно Риччи, Йонас Блоке, Эрик Эбони, Joakhim Sigue, Элисон Вэленс

Описание: В секретной лаборатории ученые разработали препарат, который позволяет человеку справиться с любой неизлечимой болезнью. Руководство спецслужб предлагает принять это лекарство экс-агенту спецслужб Итану Раннеру, которому врачи объявили смертельный диагноз. Но он должен выполнить еще одно задание, которое, впрочем, может стоить ему жизни. Теперь вокруг Раннера начинают происходить странные вещи. Что это - галлюцинации, побочный эффект от таблеток или мир действительно полон ужаса и кошмара?



Качество: BDRip 1080p
Формат: MKV
Видео кодек: AVC
Аудио кодек: AC3
Видео: 1920x810 (2.35:1), 23,976 fps, 13200 kbps, 0,354 bpp
Аудио №1: русский, DTS, 48 kHz, 5.1 ch, 1510 kbps
Аудио №2: английский, DTS, 48 kHz, 5.1 ch, 1510 kbps


Код:

General
Unique ID                                : 236054556193585654495034743914209539199 (0xB196742E162F46468F6E2CD620ACF47F)
Complete name                            : E:\3 дня на убийство (2014) 1080p.mkv
Format                                   : Matroska
Format version                           : Version 4 / Version 2
File size                                : 13.3 GiB
Duration                                 : 1h 57mn
Overall bit rate                         : 16.2 Mbps
Movie name                               : 3 дня на убийство
Encoded date                             : UTC 2014-07-30 18:30:33
Writing application                      : mkvmerge v6.9.1 ('Blue Panther') 64bit built on Apr 18 2014 18:23:38
Writing library                          : libebml v1.3.0 + libmatroska v1.4.1
Attachment                               : Yes

Video
ID                                       : 1
Format                                   : AVC
Format/Info                              : Advanced Video Codec
Format profile                           : High@L4.1
Format settings, CABAC                   : Yes
Format settings, ReFrames                : 5 frames
Codec ID                                 : V_MPEG4/ISO/AVC
Duration                                 : 1h 57mn
Bit rate                                 : 13.2 Mbps
Width                                    : 1 920 pixels
Height                                   : 810 pixels
Display aspect ratio                     : 2.35:1
Frame rate                               : 23.976 fps
Color space                              : YUV
Chroma subsampling                       : 4:2:0
Bit depth                                : 8 bits
Scan type                                : Progressive
Bits/(Pixel*Frame)                       : 0.354
Stream size                              : 10.5 GiB (79%)
Title                                    : fanatus
Writing library                          : x264 core 142 r2431+42 c69a006 tMod [8-bit@all X86]
Encoding settings                        : cabac=1 / ref=5 / deblock=1:-3:-3 / analyse=0x3:0x113 / me=tesa / subme=11 / psy=1 / fade_compensate=0.00 / psy_rd=1.04:0.02 / mixed_ref=1 / me_range=48 / chroma_me=1 / trellis=2 / 8x8dct=1 / cqm=0 / deadzone=21,11 / fast_pskip=0 / chroma_qp_offset=-3 / threads=16 / lookahead_threads=4 / sliced_threads=0 / nr=0 / decimate=0 / interlaced=0 / bluray_compat=0 / constrained_intra=0 / fgo=0 / bframes=10 / b_pyramid=2 / b_adapt=2 / b_bias=0 / direct=3 / weightb=1 / open_gop=0 / weightp=2 / keyint=240 / keyint_min=23 / scenecut=40 / intra_refresh=0 / rc_lookahead=240 / rc=2pass / mbtree=0 / bitrate=13200 / ratetol=1.0 / qcomp=0.70 / qpmin=0:0:0 / qpmax=69:69:69 / qpstep=4 / cplxblur=20.0 / qblur=0.5 / vbv_maxrate=50000 / vbv_bufsize=62500 / nal_hrd=none / filler=0 / ip_ratio=1.40 / pb_ratio=1.30 / aq=4:0.80 / aq-sensitivity=10.00 / aq-factor=1.00:1.00:1.00 / aq2=0 / aq3=0
Language                                 : English
Default                                  : Yes
Forced                                   : No

Audio #1
ID                                       : 2
Format                                   : DTS
Format/Info                              : Digital Theater Systems
Codec ID                                 : A_DTS
Duration                                 : 1h 57mn
Bit rate mode                            : Constant
Bit rate                                 : 1 510 Kbps
Channel(s)                               : 6 channels
Channel positions                        : Front: L C R, Side: L R, LFE
Sampling rate                            : 48.0 KHz
Bit depth                                : 24 bits
Compression mode                         : Lossy
Stream size                              : 1.23 GiB (9%)
Title                                    : Дублированный, Blu-ray
Language                                 : Russian
Default                                  : Yes
Forced                                   : No

Audio #2
ID                                       : 3
Format                                   : DTS
Format/Info                              : Digital Theater Systems
Codec ID                                 : A_DTS
Duration                                 : 1h 57mn
Bit rate mode                            : Constant
Bit rate                                 : 1 510 Kbps
Channel(s)                               : 6 channels
Channel positions                        : Front: L C R, Side: L R, LFE
Sampling rate                            : 48.0 KHz
Bit depth                                : 24 bits
Compression mode                         : Lossy
Stream size                              : 1.23 GiB (9%)
Title                                    : Оригинал
Language                                 : English
Default                                  : No
Forced                                   : No

Text #1
ID                                       : 4
Format                                   : UTF-8
Codec ID                                 : S_TEXT/UTF8
Codec ID/Info                            : UTF-8 Plain Text
Title                                    : Full
Language                                 : Russian
Default                                  : No
Forced                                   : No

Text #2
ID                                       : 5
Format                                   : UTF-8
Codec ID                                 : S_TEXT/UTF8
Codec ID/Info                            : UTF-8 Plain Text
Title                                    : SDH
Language                                 : English
Default                                  : No
Forced                                   : No

Menu
00:00:00.000                             : en:Chapter 01
00:10:52.234                             : en:Chapter 02
00:19:13.235                             : en:Chapter 03
00:28:51.396                             : en:Chapter 04
00:39:16.645                             : en:Chapter 05
00:49:16.828                             : en:Chapter 06
00:59:08.044                             : en:Chapter 07
01:10:12.333                             : en:Chapter 08
01:20:02.547                             : en:Chapter 09
01:30:04.732                             : en:Chapter 10
01:39:39.890                             : en:Chapter 11
01:49:45.704                             : en:Chapter 12
01:57:01.973                             : en:Chapter 13

Бюджет фильма: $28 000 000
Премьера (мир): 12 февраля 2014
Премьера (РФ): 10 апреля 2014,
«Парадиз»

Релиз на Blu-Ray: 10 июня 2014,
«Парадиз / Активижен»,
...

Релиз на DVD: 10 июня 2014,
«Парадиз / Активижен»,
...
скриншот   скриншот   скриншот   скриншот  
pb.wtf



Скачать 3 дня на убийство через торрент https://pic.kartinco.top/new/img/2014-08/09/qi9d5vui8bx1w5ep6519hs1e7.png Скачать, смотреть онлайн 3 дня на убийство бесплантно в хорошем качестве Описание: В секретной лаборатории ученые разработали препарат, который позволяет человеку справиться с любой неизлечимой болезнью. ... 10 10 8
Info! Золотая раздача, скачанное не засчитывается.
Торрент: Зарегистрирован [2014-08-07 20:10] · скачан: 106 раз
Статус: √ проверено
Размер: 13.25 GB
Как cкачать? Как скачать 3 дня на убийство через торрент | UTorrent

% Раздел Тема Автор DL S | L
Фильмы (Blu-ray, BD-Remux, HDDVD) [ 22.97 GB ] 3 дня на убийство / 3 Days to Kill [2014 BD-Remux USA Transfer ] от R.G. HD-Films Seedtank Скачать
1 | 0
Фильмы 2014 [DVDrip, WEB-DLRip, HDrip] [ 1.46 GB ] 3 дня на убийство / Days to Kill [2014 HDRip-AVC] ] От R.G. PiratFilms White Smoke Скачать
1 | 0


Последний раз редактировалось: Seedtank (2014-08-09 16:36), всего редактировалось 2 раз(а)

28-11-2019 20:33  

Отключить всю рекламу на сайте

07-08-2014 20:11 3 дня на убийство Скачать торрент  

Релиз подготовлен специально для piratbit.cc
Вшита обложка.

На компьютере это выглядит так, отлично для коллекции
скриншот  pb.wtf



08-08-2014 02:17 3 дня на убийство Скачать торрент  

только этот фильм для коллекции не годится.
а твоя задумка вшивать обложки в файлы звучит замечательно, как торт на день рождения
да.... кстати, с Днем Рождения, рости большой не будь лапшой :rofle:


всех благ pb.wtf



08-08-2014 06:37 3 дня на убийство Скачать торрент  

ТаможеНик,
от души. pb.wtf



    Дорогой пользователь! Огромная просьба, поблагодарите релизера, оцените раздачу и оставьте свои комментарий, если Вы скачали 3 дня на убийство через торрент бесплатно!
    Комментировать посты могут только пользователи прошедшие не сложную регистрацию
    Показать сообщения:    

    3 дня на убийство через торрент
    Скачать бесплатно 3 дня на убийство
    3 дня на убийство скачать торрент
    3 дня на убийство смотреть онлайн
    Cкачать фильм 3 дня на убийство бесплатно
    3 дня на убийство скачать торрент в хорошем качестве
    3 дня на убийство смотреть онлайн бесплатно в хорошем качестве


    Вы не можете начинать темы
    Вы не можете отвечать на сообщения
    Вы не можете редактировать свои сообщения
    Вы не можете удалять свои сообщения
    Вы не можете голосовать в опросах
    Вы не можете прикреплять файлы к сообщениям
    Вы можете скачивать файлы