2 сезон

iTunes

1 сезон

1

iTunes

iTunes

iTunes

1 сезон

RePack

30

ИГРА 18+

pack

ВАЖНО

!!Акция!!

Alien_RageХит недели

RePack

MK11
pack

Забери бонус

RePack

jed

!!Акция!!

Alien_Rage

RePack

fifa19

RePack

Assassins Creed: Odyssey

RePack

NEED FOR SPEED™ PAYBACK

4 сезон

9 сезон

Бесстыжие 9 сезон

Все сериалы

все сериалы на PB.wtf

RePack

FAR CRY 5
  

Суррогаты / Surrogates (Джонатан Мостоу / Jonathan Mostow) [2009, фантастика, боевик, триллер, BDRip 1080p, Дублированный, Лицензия] от R.G. HD-Films pb.wtf

Суррогаты через торрент pb.wtf

Размер: 8.23 GB | Добавлен: 6 лет 2 мес. назад | Торрент скачан:207 раз
Скачать  

07-08-2014 20:47 Суррогаты Скачать торрент  

Суррогаты / Surrogates
«Реален только ты»



Год выпуска: 2009
Страна: США
Жанр: фантастика, боевик, триллер
Продолжительность: 01:28:36
Перевод: Дублированный [Лицензия]
Субтитры: Русские (Forced, Full), Английские (Full, SDH)



Режиссер:
  • Джонатан Мостоу / Jonathan Mostow
В ролях:
  • Брюс Уиллис, Рада Митчелл, Розамунд Пайк, Борис Коджо, Джеймс Джинти, Джеймс Кромуэлл, Винг Реймз, Джек Ноузуорти, Девин Рэтрей, Майкл Кудлиц, Джеффри Де Серрано, Хелена Мэттссон

Описание: Действие разворачивается в будущем, в 2057 году, - когда люди практически перестанут общаться между собой и полностью возложат эту функцию на плечи роботов-заменителей. Они сильнее, моложе, привлекательнее своих обладателей и даже могут быть другого пола. Но находится террорист, начинающий уничтожать идеальных андроидов. Полицейскому Тому Гриру предстоит узнать, какие причины движут злоумышленником, лишающим жизни людей и их марионеток, технически и физически совершенных.



Качество: BDRip 1080p
Формат: MKV
Видео кодек: AVC
Аудио кодек: AC3
Видео: 1920x800 (2.40:1), 23,976 fps, 11154 kbps, 0,303 bpp
Аудио №1: русский, AC3, 48 kHz, 5.1 ch, 640 kbps
Аудио №2: английский, DTS, 48 kHz, 5.1 ch, 1510 kbps


Код:

General
Unique ID                                : 198980807536528996911707457010070832066 (0x95B24F3F472A294EB37E5347667DC3C2)
Complete name                            : E:\Суррогаты (2009) 1080p.mkv
Format                                   : Matroska
Format version                           : Version 4 / Version 2
File size                                : 8.23 GiB
Duration                                 : 1h 28mn
Overall bit rate                         : 13.3 Mbps
Movie name                               : Суррогаты
Encoded date                             : UTC 2014-07-20 18:42:51
Writing application                      : mkvmerge v6.9.1 ('Blue Panther') 64bit built on Apr 18 2014 18:23:38
Writing library                          : libebml v1.3.0 + libmatroska v1.4.1
Attachment                               : Yes

Video
ID                                       : 1
Format                                   : AVC
Format/Info                              : Advanced Video Codec
Format profile                           : High@L4.1
Format settings, CABAC                   : Yes
Format settings, ReFrames                : 5 frames
Codec ID                                 : V_MPEG4/ISO/AVC
Duration                                 : 1h 28mn
Bit rate                                 : 11.2 Mbps
Width                                    : 1 920 pixels
Height                                   : 800 pixels
Display aspect ratio                     : 2.40:1
Frame rate                               : 23.976 fps
Color space                              : YUV
Chroma subsampling                       : 4:2:0
Bit depth                                : 8 bits
Scan type                                : Progressive
Bits/(Pixel*Frame)                       : 0.303
Stream size                              : 6.74 GiB (82%)
Title                                    : WiKi
Writing library                          : x264 core 68 r1179M 96e2229
Encoding settings                        : cabac=1 / ref=5 / deblock=1:-3:-3 / analyse=0x3:0x133 / me=umh / subme=9 / psy_rd=1.1:0.0 / mixed_ref=1 / me_range=48 / chroma_me=1 / trellis=2 / 8x8dct=1 / cqm=0 / deadzone=21,11 / chroma_qp_offset=-2 / threads=12 / nr=0 / decimate=1 / mbaff=0 / bframes=4 / b_pyramid=1 / b_adapt=2 / b_bias=0 / direct=1 / wpredb=1 / keyint=250 / keyint_min=25 / scenecut=40 / rc=2pass / bitrate=11154 / ratetol=1.0 / qcomp=0.60 / qpmin=10 / qpmax=51 / qpstep=4 / cplxblur=20.0 / qblur=0.5 / vbv_maxrate=50000 / vbv_bufsize=50000 / ip_ratio=1.40 / pb_ratio=1.30 / aq=1:0.90
Language                                 : English
Default                                  : Yes
Forced                                   : No

Audio #1
ID                                       : 2
Format                                   : AC-3
Format/Info                              : Audio Coding 3
Mode extension                           : CM (complete main)
Codec ID                                 : A_AC3
Duration                                 : 1h 28mn
Bit rate mode                            : Constant
Bit rate                                 : 640 Kbps
Channel(s)                               : 6 channels
Channel positions                        : Front: L C R, Side: L R, LFE
Sampling rate                            : 48.0 KHz
Bit depth                                : 16 bits
Compression mode                         : Lossy
Stream size                              : 406 MiB (5%)
Title                                    : Дублированный, Blu-ray
Language                                 : Russian
Default                                  : Yes
Forced                                   : No

Audio #2
ID                                       : 3
Format                                   : DTS
Format/Info                              : Digital Theater Systems
Codec ID                                 : A_DTS
Duration                                 : 1h 28mn
Bit rate mode                            : Constant
Bit rate                                 : 1 510 Kbps
Channel(s)                               : 6 channels
Channel positions                        : Front: L C R, Side: L R, LFE
Sampling rate                            : 48.0 KHz
Bit depth                                : 24 bits
Compression mode                         : Lossy
Stream size                              : 957 MiB (11%)
Title                                    : Оригинал
Language                                 : English
Default                                  : No
Forced                                   : No

Text #1
ID                                       : 4
Format                                   : UTF-8
Codec ID                                 : S_TEXT/UTF8
Codec ID/Info                            : UTF-8 Plain Text
Title                                    : Forced
Language                                 : Russian
Default                                  : Yes
Forced                                   : No

Text #2
ID                                       : 5
Format                                   : UTF-8
Codec ID                                 : S_TEXT/UTF8
Codec ID/Info                            : UTF-8 Plain Text
Title                                    : Full
Language                                 : Russian
Default                                  : No
Forced                                   : No

Text #3
ID                                       : 6
Format                                   : UTF-8
Codec ID                                 : S_TEXT/UTF8
Codec ID/Info                            : UTF-8 Plain Text
Title                                    : Full
Language                                 : English
Default                                  : No
Forced                                   : No

Text #4
ID                                       : 7
Format                                   : UTF-8
Codec ID                                 : S_TEXT/UTF8
Codec ID/Info                            : UTF-8 Plain Text
Title                                    : SDH
Language                                 : English
Default                                  : No
Forced                                   : No

Menu
00:03:45.266                             : en:00:03:45.266
00:08:34.055                             : en:00:08:34.055
00:14:45.885                             : en:00:14:45.885
00:20:36.777                             : en:00:20:36.777
00:24:47.903                             : en:00:24:47.903
00:28:59.404                             : en:00:28:59.404
00:35:30.837                             : en:00:35:30.837
00:40:10.449                             : en:00:40:10.449
00:46:11.435                             : en:00:46:11.435
00:49:48.026                             : en:00:49:48.026
00:54:08.286                             : en:00:54:08.286
01:00:37.759                             : en:01:00:37.759
01:08:27.895                             : en:01:08:27.895
01:11:43.007                             : en:01:11:43.007
01:19:43.487                             : en:01:19:43.487
01:23:59.826                             : en:01:23:59.826
01:28:36.102                             : en:01:28:36.102

Бюджет фильма: $80 000 000
Премьера (мир): 24 сентября 2009
Премьера (РФ): 24 сентября 2009,
«BVSPR Disney»

Релиз на Blu-Ray: 28 января 2010,
«Уолт Дисней Компани СНГ»,
...

Релиз на DVD: 29 октября 2009,
«Уолт Дисней Компани СНГ»,
...
скриншот   скриншот   скриншот   скриншот  
pb.wtf



Скачать Суррогаты через торрент http://pic.kartinco.top/new/img/2014-08/09/3uag2a8ueasaqjgt8ajhtbv18.png Скачать фильм Суррогаты через торрент бесплантно в хорошем качестве Описание: Действие разворачивается в будущем, в 2057 году, - когда люди практически перестанут общаться между собой и полностью возложат ... 10 10 12
Info! Золотая раздача, скачанное не засчитывается.
Торрент: Зарегистрирован [2014-08-07 20:47] · скачан: 207 раз
Статус: √ проверено
Размер: 8.23 GB
Как cкачать? Как скачать Суррогаты через торрент | qTorrent



Последний раз редактировалось: Seedtank (2014-08-09 16:34), всего редактировалось 4 раз(а)

28-11-2019 20:33  

Отключить всю рекламу на сайте

07-08-2014 20:48 Суррогаты Скачать торрент  

Релиз подготовлен специально для piratbit.cc
Вшита обложка. На компьютере это выглядит так, отлично для коллекции:
скриншот  pb.wtf



07-08-2014 21:18 Суррогаты Скачать торрент  

Seedtank писал(а):

Релиз подготовлен специально для piratbit.cc
Вшита обложка. На компьютере это выглядит так, отлично для коллекции:
скриншот  

Тоже так хочу что бы выглядело. Фильмы уже все переименованы как надо. а вот через что лучше обложку встраивать? Если можно в личку пожалуста ответь. Зарание спасибоpb.wtf



    Дорогой пользователь! Огромная просьба, поблагодарите релизера, оцените раздачу и оставьте свои комментарий, если Вы скачали Суррогаты через торрент бесплатно! Внесите свою лепту в развитие PiratBit!
    Комментировать посты могут только пользователи прошедшие не сложную регистрацию
    Показать сообщения:    

    Суррогаты через торрент
    Скачать бесплатно Суррогаты
    Суррогаты скачать торрент
    Суррогаты смотреть онлайн
    Cкачать фильм Суррогаты бесплатно
    Суррогаты скачать торрент в хорошем качестве
    Суррогаты смотреть онлайн бесплатно в хорошем качестве


    Вы не можете начинать темы
    Вы не можете отвечать на сообщения
    Вы не можете редактировать свои сообщения
    Вы не можете удалять свои сообщения
    Вы не можете голосовать в опросах
    Вы не можете прикреплять файлы к сообщениям
    Вы можете скачивать файлы