2 сезон

iTunes

MVO

1

2 сезон

iTunes

iTunes

1 сезон

RePack

30

Новинка

ВАЖНО

ИГРА 18+

pack

RePack

MK11
pack

Легкие деньги

RePack

jed

RePack

fifa19

RePack

RDR2

RePack

NEED FOR SPEED™ PAYBACK

4 сезон

9 сезон

Бесстыжие 9 сезон

Все сериалы

все сериалы на PB.wtf

RePack

FAR CRY 5

Anonymous, доброй ночи, мы не успеваем собрать деньги на оплату серверов за декабрь и январь, помогите нам пожалуйста в это трудное время. В качестве благодарности мы отключим Вам всю рекламу на сайте (укажите свой ник в строку Ваше имя)!

×
  
Magnet ссылка

Любовь – это идеальное преступление / L'amour est un crime parfait (Арно Ларьё / Arnaud Larrieu, Жан-Мари Ларьё / Jean-Marie Larrieu) [2013, Франция, Швейцария, триллер, драма, HDRip, Профессиональный (многоголосый) [Студия Позитив] pb.wtf

Любовь – это идеальное преступление через торрент pb.wtf

Размер: 1.46 GB | Добавлен: 6 лет 5 мес. назад | Торрент скачан:291 раз
Скачать  

08-08-2014 03:43 Любовь – это идеальное преступление Скачать торрент  

Любовь – это идеальное преступление / L'amour est un crime parfait


  • Год выпуска: 2013
  • Страна: Франция, Швейцария
  • Жанр: триллер, драма

  • Продолжительность: 01:50:33
  • Перевод: Профессиональный (многоголосый) [Студия Позитив]

  • Режиссер: Арно Ларьё / Arnaud Larrieu, Жан-Мари Ларьё / Jean-Marie Larrieu
  • В ролях:

    Матье Амальрик (Marc), Карин Вьяр (Marianne), Майвенн Ле Беско (Anna), Сара Форестье (Annie), Дени Подалидес (Richard), Мэрион Дювал (Barbara), Дамьен Дорсаз (Le jeune inspecteur), Карл фон Малаисе (Le motard), Anne-Laure Tondu (La serveuse), Alain Börek (Le collègue de Marc), Pierre Maillard (M. Marinelli), Guilherme Dias Martins (Le balayeur à la gare)

  • Описание:
    У Марка, преподавателя литературы в лозаннском университете, репутация коллекционера любовных приключений со своими студентками. Одна из самых ярких завоеванных им студенток исчезает, и через несколько дней после этого Марк встречает Анну, которая стремится больше узнать об исчезновении своей падчерицы.
  • Рейтинг:



  • Качество: HDRip
  • Формат: :AVI
  • Видео кодек: XviD
  • Аудио кодек: AC3
  • Видео: 720x288 (2.500), 1688 kbps, 24 fps, 0,339 bpp
  • Аудио: 2.0 / 48 kHz / 192 kbps / 16 bit
  • Релиз от: GEKADOL

    Код:

    General
    Complete name                            : D:\Фильмы\Lubovj.eto.idealjnoe.prestyplenie.2013.P.HDRip.avi
    Format                                   : AVI
    Format/Info                              : Audio Video Interleave
    File size                                : 1.46 GiB
    Duration                                 : 1h 50mn
    Overall bit rate                         : 1 890 Kbps
    Writing application                      : VirtualDubMod 1.5.10.2 (build 2540/release)
    Writing library                          : VirtualDubMod build 2540/release

    Video
    ID                                       : 0
    Format                                   : MPEG-4 Visual
    Format profile                           : Advanced Simple@L5
    Format settings, BVOP                    : 2
    Format settings, QPel                    : No
    Format settings, GMC                     : No warppoints
    Format settings, Matrix                  : Default (MPEG)
    Codec ID                                 : XVID
    Codec ID/Hint                            : XviD
    Duration                                 : 1h 50mn
    Bit rate                                 : 1 688 Kbps
    Width                                    : 720 pixels
    Height                                   : 288 pixels
    Display aspect ratio                     : 2.500
    Frame rate                               : 24.000 fps
    Color space                              : YUV
    Chroma subsampling                       : 4:2:0
    Bit depth                                : 8 bits
    Scan type                                : Progressive
    Compression mode                         : Lossy
    Bits/(Pixel*Frame)                       : 0.339
    Stream size                              : 1.30 GiB (89%)
    Writing library                          : XviD 1.2.1 (UTC 2008-12-04)

    Audio
    ID                                       : 1
    Format                                   : AC-3
    Format/Info                              : Audio Coding 3
    Mode extension                           : CM (complete main)
    Codec ID                                 : 2000
    Duration                                 : 1h 50mn
    Bit rate mode                            : Constant
    Bit rate                                 : 192 Kbps
    Channel(s)                               : 2 channels
    Channel positions                        : Front: L R
    Sampling rate                            : 48.0 KHz
    Bit depth                                : 16 bits
    Compression mode                         : Lossy
    Stream size                              : 152 MiB (10%)
    Alignment                                : Split accross interleaves
    Interleave, duration                     : 42 ms (1.00 video frame)
    Interleave, preload duration             : 500 ms


    Скриншоты:


    pb.wtf



  • Скачать Любовь – это идеальное преступление через торрент http://i68.fastpic.ru/big/2014/0808/a2/a556249dca771105b0cb1f39b7477da2.jpg Скачать фильм Любовь – это идеальное преступление через торрент бесплантно в хорошем качестве Описание: У Марка, преподавателя литературы в лозаннском университете, репутация коллекционера любовных приключений со своими студентками. ... 10 10 9
    Торрент: Зарегистрирован [2014-08-08 03:43] · скачан: 291 раз
    Статус: √ проверено
    Размер: 1.46 GB
    Как cкачать? Как скачать Любовь – это идеальное преступление через торрент | UTorrent

    28-11-2019 20:33  

    Отключить всю рекламу на сайте

      Дорогой пользователь! Огромная просьба, поблагодарите релизера, оцените раздачу и оставьте свои комментарий, если Вы скачали Любовь – это идеальное преступление через торрент бесплатно! Внесите свою лепту в развитие PiratBit!
      Комментировать посты могут только пользователи прошедшие не сложную регистрацию
      Показать сообщения:    

      Любовь – это идеальное преступление через торрент
      Скачать бесплатно Любовь – это идеальное преступление
      Любовь – это идеальное преступление скачать торрент
      Любовь – это идеальное преступление смотреть онлайн
      Cкачать фильм Любовь – это идеальное преступление бесплатно
      Любовь – это идеальное преступление скачать торрент в хорошем качестве
      Любовь – это идеальное преступление смотреть онлайн бесплатно в хорошем качестве


      Вы не можете начинать темы
      Вы не можете отвечать на сообщения
      Вы не можете редактировать свои сообщения
      Вы не можете удалять свои сообщения
      Вы не можете голосовать в опросах
      Вы не можете прикреплять файлы к сообщениям
      Вы можете скачивать файлы