2 сезон

iTunes

MVO

1

2 сезон

iTunes

iTunes

1 сезон

RePack

30

Новинка

ВАЖНО

ИГРА 18+

pack

RePack

MK11
pack

Легкие деньги

RePack

jed

RePack

fifa19

RePack

RDR2

RePack

NEED FOR SPEED™ PAYBACK

4 сезон

9 сезон

Бесстыжие 9 сезон

Все сериалы

все сериалы на PB.wtf

RePack

FAR CRY 5

Anonymous, доброй ночи, мы не успеваем собрать деньги на оплату серверов за декабрь и январь, помогите нам пожалуйста в это трудное время. В качестве благодарности мы отключим Вам всю рекламу на сайте (укажите свой ник в строку Ваше имя)!

×
  
Magnet ссылка

Форрест Гамп / Forrest Gump (Роберт Земекис / Robert Zemeckis) [1994, США, драма, мелодрама, BDRip 720p,Многоголосый, закадровый) [Лицензия] 60FPS pb.wtf

Форрест Гамп через торрент pb.wtf

Размер: 10.34 GB | Добавлен: 6 лет 5 мес. назад | Торрент скачан:3 раза
Скачать  

08-08-2014 13:26 Форрест Гамп Скачать торрент  

Форрест Гамп / Forrest Gump

Год выпуска: 1994
Страна: США
Жанр: драма, мелодрама
Продолжительность: 02:22:09
Перевод: Многоголосый, закадровый
Субтитры:Русские (Полные), Английские (Полные),
Режиссер: Роберт Земекис / Robert Zemeckis
В ролях:

Том Хэнкс (Forrest Gump), Робин Райт (Jenny Curran), Гэри Синиз (Lieutenant Dan Taylor), Майкелти Уильямсон (Bubba Blue), Салли Филд (Mrs. Gump), Ребекка Уильямс (Nurse at Park Bench), Майкл Коннер Хэмпфри (Young Forrest), Хэйли Джоэл Осмент (Forrest Junior), Харольд Дж. Хертэм (Doctor), Джордж Келли (Barber), Боб Пенни (Crony), Джон Рэндолл (Crony)
Описание:
От лица главного героя Форреста Гампа, слабоумного безобидного человека с благородным и открытым сердцем, рассказывается история его необыкновенной жизни.
Фантастическим образом превращается он в известного футболиста, героя войны, преуспевающего бизнесмена. Он становится миллиардером, но остается таким же бесхитростным, глупым и добрым. Форреста ждет постоянный успех во всем, а он любит девочку, с которой дружил в детстве, но взаимность приходит слишком поздно.
Рейтинг:


Автор рипа:Tiberiumsun69
Качество: BDRip 720p
Формат: MKV
Видео кодек: AVC
Аудио кодек:AC3
Видео: AVC, 1280x544, 7838 kbps, 59,940 fps
Аудио №1: русский / AC3 / 5.1 / 48 kHz / 448 kbps / 16 bit |Многоголосый закадровый, Студия Киномания|
Аудио №2: русский / AC3 / 5.1 / 48 kHz / 640 kbps / 16 bit |Многоголосый закадровый, Студия Позитив|
Аудио №3: русский / AC3 / 5.1 / 48 kHz / 640 kbps / 16 bit |Многоголосый закадровый, Студия Тайкун|
Аудио №4: английский / AC3 / 5.1 / 48 kHz / 640 kbps / 16 bit
Навигация по главам: есть

Raven за помощь в создании обложек.
General
Unique ID : 204710154230820520683419537357788840406 (0x9A01BDD930FAE35FA09AE7837DCE81D6)
Complete name : A:\720p 60fps\Форрест Гамп 720p 60fps.mkv
Format : Matroska
Format version : Version 4 / Version 2
File size : 10.3 GiB
Duration : 2h 22mn
Overall bit rate : 10.4 Mbps
Encoded date : UTC 2014-08-05 12:18:17
Writing application : mkvmerge v6.9.1 ('Blue Panther') 64bit built on Apr 18 2014 18:23:38
Writing library : libebml v1.3.0 + libmatroska v1.4.1
Attachment : Yes / Yes / Yes

Video
ID : 1
Format : AVC
Format/Info : Advanced Video Codec
Format profile : High@L4.1
Format settings, CABAC : Yes
Format settings, ReFrames : 9 frames
Codec ID : V_MPEG4/ISO/AVC
Duration : 2h 22mn
Bit rate : 7 839 Kbps
Width : 1 280 pixels
Height : 544 pixels
Display aspect ratio : 2.35:1
Frame rate : 59.940 fps
Color space : YUV
Chroma subsampling : 4:2:0
Bit depth : 8 bits
Scan type : Progressive
Bits/(Pixel*Frame) : 0.188
Stream size : 7.78 GiB (75%)
Writing library : x264 core 130 r2273 b3065e6
Encoding settings : cabac=1 / ref=9 / deblock=1:-1:-1 / analyse=0x3:0 / me=umh / subme=9 / psy=1 / psy_rd=1.00:0.10 / mixed_ref=1 / me_range=42 / chroma_me=0 / trellis=2 / 8x8dct=1 / cqm=0 / deadzone=21,11 / fast_pskip=0 / chroma_qp_offset=-3 / threads=12 / lookahead_threads=1 / sliced_threads=0 / nr=0 / decimate=0 / interlaced=0 / bluray_compat=0 / constrained_intra=0 / bframes=6 / b_pyramid=2 / b_adapt=2 / b_bias=0 / direct=1 / weightb=1 / open_gop=0 / weightp=2 / keyint=594 / keyint_min=59 / scenecut=40 / intra_refresh=0 / rc=crf / mbtree=0 / crf=15.0 / qcomp=0.60 / qpmin=0 / qpmax=69 / qpstep=4 / ip_ratio=1.40 / pb_ratio=1.30 / aq=0
Language : English
Default : Yes
Forced : No

Audio #1
ID : 2
Format : AC-3
Format/Info : Audio Coding 3
Mode extension : CM (complete main)
Codec ID : A_AC3
Duration : 2h 22mn
Bit rate mode : Constant
Bit rate : 448 Kbps
Channel(s) : 6 channels
Channel positions : Front: L C R, Side: L R, LFE
Sampling rate : 48.0 KHz
Bit depth : 16 bits
Compression mode : Lossy
Stream size : 456 MiB (4%)
Title : MVO Киномания
Language : Russian
Default : Yes
Forced : No

Audio #2
ID : 4
Format : AC-3
Format/Info : Audio Coding 3
Mode extension : CM (complete main)
Codec ID : A_AC3
Duration : 2h 22mn
Bit rate mode : Constant
Bit rate : 640 Kbps
Channel(s) : 6 channels
Channel positions : Front: L C R, Side: L R, LFE
Sampling rate : 48.0 KHz
Bit depth : 16 bits
Compression mode : Lossy
Stream size : 651 MiB (6%)
Title : MVO Позитив
Language : Russian
Default : No
Forced : No

Audio #3
ID : 5
Format : AC-3
Format/Info : Audio Coding 3
Mode extension : CM (complete main)
Codec ID : A_AC3
Duration : 2h 22mn
Bit rate mode : Constant
Bit rate : 640 Kbps
Channel(s) : 6 channels
Channel positions : Front: L C R, Side: L R, LFE
Sampling rate : 48.0 KHz
Bit depth : 16 bits
Compression mode : Lossy
Stream size : 651 MiB (6%)
Title : MVO Тайкун
Language : Russian
Default : No
Forced : No

Audio #4
ID : 6
Format : AC-3
Format/Info : Audio Coding 3
Mode extension : CM (complete main)
Codec ID : A_AC3
Duration : 2h 22mn
Bit rate mode : Constant
Bit rate : 640 Kbps
Channel(s) : 6 channels
Channel positions : Front: L C R, Side: L R, LFE
Sampling rate : 48.0 KHz
Bit depth : 16 bits
Compression mode : Lossy
Stream size : 651 MiB (6%)
Title : Original
Language : English
Default : No
Forced : No

Text #1
ID : 3
Format : UTF-8
Codec ID : S_TEXT/UTF8
Codec ID/Info : UTF-8 Plain Text
Title : Полные
Language : Russian
Default : No
Forced : No

Text #2
ID : 7
Format : UTF-8
Codec ID : S_TEXT/UTF8
Codec ID/Info : UTF-8 Plain Text
Title : Полные
Language : English
Default : No
Forced : No

Menu
00:00:00.000 : :1. I'm Forest...Forest Gump
00:06:43.569 : :2. Mama
00:12:24.577 : :3. Like Peas and Carrots
00:19:56.945 : :4. Run Forest Run!
00:31:13.705 : :5. Private Gump
00:40:40.187 : :6. Lieutenant Dan
00:44:18.113 : :7. My Best Good Friend
00:56:34.474 : :8. Wounded In the Buttocks
01:03:32.266 : :9. You're My Girl
01:13:34.076 : :10. National Celebrity
01:17:02.826 : :11. Happy New Year
01:23:52.277 : :12. Shrimp Boat Captain
01:34:59.944 : :13. Bubba Gump
01:38:55.596 : :14. Mama's Trip To Heaven
01:43:52.893 : :15. Jenny Comes Home
01:51:28.306 : :16. A Little Run
01:58:54.710 : :17. Forrest Meets Forrest
02:04:48.564 : :18. Beloved Mother, Wife and Friend
02:15:25.200 : :19. Credits
Авторская группа в ВК
pb.wtf



Скачать Форрест Гамп через торрент http://i66.fastpic.ru/big/2014/0808/19/83f27bd2c91455e94c7ab02636bd4c19.png Скачать фильм Форрест Гамп через торрент бесплантно в хорошем качестве Описание: От лица главного героя Форреста Гампа, слабоумного безобидного человека с благородным и открытым сердцем, рассказывается история ... 9.9 10 13
Info! Золотая раздача, скачанное не засчитывается.
Торрент: Зарегистрирован [2014-08-08 13:26] · скачан: 3 раз
Статус: √ проверено
Размер: 10.34 GB
Как cкачать? Как скачать Форрест Гамп через торрент | UTorrent

% Раздел Тема Автор DL S | L
Фильмы (HD 720p, 1080p) (48-60 fps) [ 19.98 GB ] Форрест Гамп / Forrest Gump [1994 BDRip 1080pМногоголосый закадровый) [] 60FPS Tiberiumsun69 Скачать
1 | 0


Последний раз редактировалось: Tiberiumsun69 (2018-02-07 08:04), всего редактировалось 1 раз

28-11-2019 20:33  

Отключить всю рекламу на сайте

22-03-2015 13:50 Форрест Гамп Скачать торрент  

когда будет раздача второй день 11,4%pb.wtf



23-11-2015 05:36 Форрест Гамп Скачать торрент  

перезалейте ааа, пожалуйста друзья.. до конца жизни ждать пока загрузится да)))pb.wtf



13-03-2016 18:50 Форрест Гамп Скачать торрент  

ireebok писал(а):

когда будет раздача второй день 11,4%

когда будет раздача уже прошёл ГОДpb.wtf



    Дорогой пользователь! Огромная просьба, поблагодарите релизера, оцените раздачу и оставьте свои комментарий, если Вы скачали Форрест Гамп через торрент бесплатно! Внесите свою лепту в развитие PiratBit!
    Комментировать посты могут только пользователи прошедшие не сложную регистрацию
    Показать сообщения:    

    Форрест Гамп через торрент
    Скачать бесплатно Форрест Гамп
    Форрест Гамп скачать торрент
    Форрест Гамп смотреть онлайн
    Cкачать фильм Форрест Гамп бесплатно
    Форрест Гамп скачать торрент в хорошем качестве
    Форрест Гамп смотреть онлайн бесплатно в хорошем качестве


    Вы не можете начинать темы
    Вы не можете отвечать на сообщения
    Вы не можете редактировать свои сообщения
    Вы не можете удалять свои сообщения
    Вы не можете голосовать в опросах
    Вы не можете прикреплять файлы к сообщениям
    Вы можете скачивать файлы