Anonymous, доброй ночи, присоединяйтесь к нам в Telegram!, здесь всегда актуальный адрес сайта, оперативная поддержка и многое другое!

>

5.6

iTunes

7.4

iTunes

7.9

MVO

1

7.7

1 сезон

6.8

iTunes

7.3

1 сезон

13

6.7

1 сезон

8.3

RePack

30

ОНЛАЙН

pack

9.9

Лицензия

ВАЖНО

ИГРА 18+

pack

7.3

RePack

MK11

7.7

RePack

jed

7.8

RePack

fifa19

8.5

RePack

RDR2

RePack

NEED FOR SPEED™ PAYBACK

4 сезон

9 сезон

Бесстыжие 9 сезон

Все сериалы

все сериалы на PB.wtf

RePack

FAR CRY 5

Anonymous, доброй ночи, мы катастрофически не успеваем собрать деньги на оплату серверов, помогите нам пожалуйста 5,10,15р., для нас важна любая помощь . В качестве благодарности мы отключим Вам всю рекламу на сайте (укажите свой ник в строку Ваше имя)!

×
  
Magnet ссылка

Обитель зла / Resident Evil [Антология] [2002-2012, ужасы, фантастика, боевик, триллер BDRip 1080p, DUB] 60fps pb.wtf

Обитель зла через торрент pb.wtf

Размер: 48.93 GB | Добавлен: 7 лет 2 мес. назад | Торрент скачан:451 раз
Смотреть онлайн Обитель зла | Скачать    Ребята, помогите собрать деньги на оплату серверов!!!

08-08-2014 15:11 Обитель зла Скачать торрент  

Перед скачиванием обязательно проверьте Сэмплы на своем оборудовании.
В 2,5 раза больше кадров!
В 2,5 раза плавнее! (59,94 fps)
Приятного просмотра. =)
Raven за помощь в оформлении обложек.
Обитель зла / Resident Evil

Год выпуска: 2002
Страна: Германия, США
Жанр: ужасы, фантастика, боевик

Продолжительность: 01:40:31
Перевод: Дубляж
Субтитры:Русские (Полные), Английские (Полные)
Режиссер: Пол У. С. Андерсон / Paul W.S. Anderson
В ролях:

Милла Йовович (Alice), Мишель Родригес (Rain), Эрик Мэбиас (Matt), Джеймс Пьюрфой (Spence), Мартин Крюз (Kaplan), Колин Сэлмон (One), Райан МакКласки (Mr. Grey), Оскар Пирс (Mr. Red), Индра Ове (Ms. Black), Анна Болт (Dr. Green), Джозеф Мэй (Dr. Blue), Роберт Тэннион (Dr. Brown)
Описание:
В гигантской подземной лаборатории на волю вырывается опаснейший вирус, мгновенно превращая своих жертв в прожорливых зомби. Достаточно одного их укуса или царапины страшных когтей, чтобы человек стал обезумевшим пожирателем живой плоти.
Военные посылают в секретный комплекс, кишащий ужасными мутировавшими животными и голодными монстрами, группу спецназа, к которой присоединяются очаровательная Элис и отважный полицейский Мэтт. У них есть только три часа, чтобы уничтожить вирус до того, как он распространится по всей Земле...
Рейтинг:


Автор рипа:Tiberiumsun69
Качество: BDRip 1080p
Формат: MKV
Видео кодек: AVC
Аудио кодек:AC3
Видео: AVC, 1920x1040, 16035 kbps, 59,940 fps
Аудио №1: русский / AC3 / 5.1 / 48 kHz / 640 kbps / 16 bit |Дубляж BD CEE|
Аудио №2: английский / AC3 / 5.1 / 48 kHz / 640 kbps / 16 bit
Навигация по главам: есть

General
Unique ID : 201985015017102233697041655867307615506 (0x97F4E61C997B1E8DB663DE8212926512)
Complete name : A:\1080p 60fps\Обитель зла 1080p 60fps\Обитель зла 1 1080p 60fps.mkv
Format : Matroska
Format version : Version 4 / Version 2
File size : 12.4 GiB
Duration : 1h 40mn
Overall bit rate : 17.7 Mbps
Encoded date : UTC 2014-08-05 22:21:01
Writing application : mkvmerge v6.9.1 ('Blue Panther') 64bit built on Apr 18 2014 18:23:38
Writing library : libebml v1.3.0 + libmatroska v1.4.1

Video
ID : 1
Format : AVC
Format/Info : Advanced Video Codec
Format profile : High@L4.1
Format settings, CABAC : Yes
Format settings, ReFrames : 4 frames
Codec ID : V_MPEG4/ISO/AVC
Duration : 1h 40mn
Bit rate : 16.0 Mbps
Width : 1 920 pixels
Height : 1 040 pixels
Display aspect ratio : 16:9
Frame rate : 59.940 fps
Color space : YUV
Chroma subsampling : 4:2:0
Bit depth : 8 bits
Scan type : Progressive
Bits/(Pixel*Frame) : 0.134
Stream size : 11.3 GiB (91%)
Writing library : x264 core 130 r2273 b3065e6
Encoding settings : cabac=1 / ref=4 / deblock=1:-1:-1 / analyse=0x3:0 / me=umh / subme=9 / psy=1 / psy_rd=1.00:0.10 / mixed_ref=1 / me_range=42 / chroma_me=0 / trellis=2 / 8x8dct=1 / cqm=0 / deadzone=21,11 / fast_pskip=0 / chroma_qp_offset=-3 / threads=12 / lookahead_threads=1 / sliced_threads=0 / nr=0 / decimate=0 / interlaced=0 / bluray_compat=0 / constrained_intra=0 / bframes=5 / b_pyramid=2 / b_adapt=2 / b_bias=0 / direct=1 / weightb=1 / open_gop=0 / weightp=2 / keyint=594 / keyint_min=59 / scenecut=40 / intra_refresh=0 / rc=crf / mbtree=0 / crf=15.0 / qcomp=0.60 / qpmin=0 / qpmax=69 / qpstep=4 / ip_ratio=1.40 / pb_ratio=1.30 / aq=0
Language : English
Default : Yes
Forced : No

Audio #1
ID : 2
Format : AC-3
Format/Info : Audio Coding 3
Mode extension : CM (complete main)
Codec ID : A_AC3
Duration : 1h 40mn
Bit rate mode : Constant
Bit rate : 640 Kbps
Channel(s) : 6 channels
Channel positions : Front: L C R, Side: L R, LFE
Sampling rate : 48.0 KHz
Bit depth : 16 bits
Compression mode : Lossy
Stream size : 460 MiB (4%)
Title : Дубляж
Language : Russian
Default : Yes
Forced : No

Audio #2
ID : 3
Format : AC-3
Format/Info : Audio Coding 3
Mode extension : CM (complete main)
Codec ID : A_AC3
Duration : 1h 40mn
Bit rate mode : Constant
Bit rate : 640 Kbps
Channel(s) : 6 channels
Channel positions : Front: L C R, Side: L R, LFE
Sampling rate : 48.0 KHz
Bit depth : 16 bits
Compression mode : Lossy
Stream size : 460 MiB (4%)
Title : Original
Language : English
Default : No
Forced : No

Text #1
ID : 4
Format : UTF-8
Codec ID : S_TEXT/UTF8
Codec ID/Info : UTF-8 Plain Text
Title : Полные
Language : Russian
Default : No
Forced : No

Text #2
ID : 5
Format : UTF-8
Codec ID : S_TEXT/UTF8
Codec ID/Info : UTF-8 Plain Text
Title : Полные
Language : English
Default : No
Forced : No

Menu
00:00:00.000 : :Chapter 01
00:08:22.585 : :Chapter 02
00:11:00.409 : :Chapter 03
00:19:09.940 : :Chapter 04
00:23:49.010 : :Chapter 05
00:29:22.469 : :Chapter 06
00:37:51.227 : :Chapter 07
00:41:14.555 : :Chapter 08
00:47:11.829 : :Chapter 09
00:52:16.591 : :Chapter 10
01:00:47.977 : :Chapter 11
01:08:35.694 : :Chapter 12
01:12:05.321 : :Chapter 13
01:18:33.667 : :Chapter 14
01:24:22.348 : :Chapter 15
01:30:16.160 : :Chapter 16
01:40:30.441 : :Chapter 17
Обитель зла 2: Апокалипсис / Resident Evil: Apocalypse

Год выпуска: 2004
Страна: Германия, Франция, Великобритания, Канада, США
Жанр: ужасы, фантастика, боевик, триллер
Продолжительность: 01:33:48
Перевод: Дубляж
Субтитры:Русские (Полные), Английские (Полные)
Режиссер: Александр Уитт / Alexander Witt
В ролях:

Милла Йовович (Alice), Сиенна Гиллори (Jill Valentine), Одед Фер (Carlos Olivera), Томас Кречман (Major Tom Cain), Софи Вавасо (Angie Ashford), Разаак Адоти (Sgt. Peyton Wells), Джаред Харрис (Dr. Ashford), Майк Эппс (L.J.), Сандрин Холт (Terri Morales), Мэттью Дж. Тейлор (Nemesis), Зак Уорд (Nicholai Ginovaeff), Иэн Глен (Dr. Isaacs)
Описание:
Действие картины разворачивается на улицах печально известного Ракун-сити, города, контролируемого могущественной корпорацией «Амбрелла».
После бактериологической катастрофы все жители стали медленно превращаться в зомби, а те немногочисленные граждане, чей разум ещё не был до конца изъеден ужасным вирусом, доживали свои последние дни в атмосфере страха и желания скорейшей смерти...
Рейтинг:


Автор рипа:Tiberiumsun69
Качество: BDRip 1080p
Формат: MKV
Видео кодек: AVC
Аудио кодек:AC3
Видео: AVC, 1920x800, 13060 kbps, 59,940 fps
Аудио №1: русский / AC3 / 5.1 / 48 kHz / 640 kbps / 16 bit |Дубляж BD CEE|
Аудио №2: английский / AC3 / 5.1 / 48 kHz / 640 kbps / 16 bit
Навигация по главам: есть

General
Unique ID : 210346265902924217532819654831986988928 (0x9E3F379BAE3EE4A8A9C7483678745780)
Complete name : A:\1080p 60fps\Обитель зла 1080p 60fps\Обитель зла 2 1080p 60fps.mkv
Format : Matroska
Format version : Version 4 / Version 2
File size : 9.59 GiB
Duration : 1h 33mn
Overall bit rate : 14.6 Mbps
Encoded date : UTC 2014-08-05 22:35:38
Writing application : mkvmerge v6.9.1 ('Blue Panther') 64bit built on Apr 18 2014 18:23:38
Writing library : libebml v1.3.0 + libmatroska v1.4.1

Video
ID : 1
Format : AVC
Format/Info : Advanced Video Codec
Format profile : High@L4.1
Format settings, CABAC : Yes
Format settings, ReFrames : 4 frames
Codec ID : V_MPEG4/ISO/AVC
Duration : 1h 33mn
Bit rate : 13.1 Mbps
Width : 1 920 pixels
Height : 800 pixels
Display aspect ratio : 2.40:1
Frame rate : 59.940 fps
Color space : YUV
Chroma subsampling : 4:2:0
Bit depth : 8 bits
Scan type : Progressive
Bits/(Pixel*Frame) : 0.142
Stream size : 8.56 GiB (89%)
Writing library : x264 core 130 r2273 b3065e6
Encoding settings : cabac=1 / ref=4 / deblock=1:-1:-1 / analyse=0x3:0 / me=umh / subme=9 / psy=1 / psy_rd=1.00:0.10 / mixed_ref=1 / me_range=42 / chroma_me=0 / trellis=2 / 8x8dct=1 / cqm=0 / deadzone=21,11 / fast_pskip=0 / chroma_qp_offset=-3 / threads=12 / lookahead_threads=1 / sliced_threads=0 / nr=0 / decimate=0 / interlaced=0 / bluray_compat=0 / constrained_intra=0 / bframes=5 / b_pyramid=2 / b_adapt=2 / b_bias=0 / direct=1 / weightb=1 / open_gop=0 / weightp=2 / keyint=594 / keyint_min=59 / scenecut=40 / intra_refresh=0 / rc=crf / mbtree=0 / crf=15.0 / qcomp=0.60 / qpmin=0 / qpmax=69 / qpstep=4 / ip_ratio=1.40 / pb_ratio=1.30 / aq=0
Language : English
Default : Yes
Forced : No

Audio #1
ID : 2
Format : AC-3
Format/Info : Audio Coding 3
Mode extension : CM (complete main)
Codec ID : A_AC3
Duration : 1h 33mn
Bit rate mode : Constant
Bit rate : 640 Kbps
Channel(s) : 6 channels
Channel positions : Front: L C R, Side: L R, LFE
Sampling rate : 48.0 KHz
Bit depth : 16 bits
Compression mode : Lossy
Stream size : 429 MiB (4%)
Title : Дубляж
Language : Russian
Default : Yes
Forced : No

Audio #2
ID : 3
Format : AC-3
Format/Info : Audio Coding 3
Mode extension : CM (complete main)
Codec ID : A_AC3
Duration : 1h 33mn
Bit rate mode : Constant
Bit rate : 640 Kbps
Channel(s) : 6 channels
Channel positions : Front: L C R, Side: L R, LFE
Sampling rate : 48.0 KHz
Bit depth : 16 bits
Compression mode : Lossy
Stream size : 429 MiB (4%)
Title : Original
Language : English
Default : No
Forced : No

Text #1
ID : 4
Format : UTF-8
Codec ID : S_TEXT/UTF8
Codec ID/Info : UTF-8 Plain Text
Title : Полные
Language : Russian
Default : No
Forced : No

Text #2
ID : 5
Format : UTF-8
Codec ID : S_TEXT/UTF8
Codec ID/Info : UTF-8 Plain Text
Title : Полные
Language : English
Default : No
Forced : No

Menu
00:00:00.000 : :Chapter 01
00:05:56.355 : :Chapter 02
00:14:52.224 : :Chapter 03
00:19:38.051 : :Chapter 04
00:24:04.401 : :Chapter 05
00:30:52.934 : :Chapter 06
00:36:15.798 : :Chapter 07
00:42:48.315 : :Chapter 08
00:49:02.564 : :Chapter 09
00:56:26.508 : :Chapter 10
01:00:40.970 : :Chapter 11
01:07:08.858 : :Chapter 12
01:13:13.097 : :Chapter 13
01:18:07.057 : :Chapter 14
01:22:26.858 : :Chapter 15
01:24:27.854 : :Chapter 16
01:33:46.537 : :Chapter 17
Обитель зла 3 / Resident Evil: Extinction

Год выпуска: 2007
Страна: Германия, США, Франция, Австралия, Великобритания
Жанр: ужасы, фантастика, боевик, триллер

Продолжительность: 01:34:05
Перевод: Дубляж
Субтитры:Русские (Полные), Английские (Полные)
Режиссер: Рассел Малкэй / Russell Mulcahy
В ролях:

Милла Йовович (Alice), Одед Фер (Carlos Olivera), Эли Лартер (Claire), Иэн Глен (Dr. Isaacs), Ашанти (Betty), Кристофер Иган (Mikey), Спенсер Лок (K-Mart), Мэттью Мэрсден (Slater), Линден Эшби (Chase), Джейсон О’Мара (Albert Wesker), Майк Эппс (L.J.), Джо Херсли (Otto)
Описание:
Элис, не раз уже спасавшая мир от смертельных вирусов и неминуемой гибели, вновь взялась за оружие. На этот раз ей предстоит сразиться с корпорацией «Амбрелла», работающей над реализацией зверского антигуманного проекта. Коварные политики и прагматичные ученые стремятся уничтожить людей и заменить их на более «совершенные» создания, заселив Землю неуязвимыми бессмертными клонами...
Рейтинг:


Автор рипа:Tiberiumsun69
Качество: BDRip 1080p
Формат: MKV
Видео кодек: AVC
Аудио кодек:AC3
Видео: AVC, 1920x800, 13536 kbps, 59,940 fps
Аудио №1: русский / AC3 / 5.1 / 48 kHz / 640 kbps / 16 bit |Дубляж BD CEE|
Аудио №2: английский / AC3 / 5.1 / 48 kHz / 640 kbps / 16 bit
Навигация по главам: есть

General
Unique ID : 223855348101658778924727131439127575261 (0xA868F8C8AC315981A27C308C1767BADD)
Complete name : A:\1080p 60fps\Обитель зла 1080p 60fps\Обитель зла 3 1080p 60fps.mkv
Format : Matroska
Format version : Version 4 / Version 2
File size : 9.94 GiB
Duration : 1h 34mn
Overall bit rate : 15.1 Mbps
Encoded date : UTC 2014-08-05 22:38:52
Writing application : mkvmerge v6.9.1 ('Blue Panther') 64bit built on Apr 18 2014 18:23:38
Writing library : libebml v1.3.0 + libmatroska v1.4.1

Video
ID : 1
Format : AVC
Format/Info : Advanced Video Codec
Format profile : High@L4.1
Format settings, CABAC : Yes
Format settings, ReFrames : 4 frames
Codec ID : V_MPEG4/ISO/AVC
Duration : 1h 34mn
Bit rate : 13.5 Mbps
Width : 1 920 pixels
Height : 800 pixels
Display aspect ratio : 2.40:1
Frame rate : 59.940 fps
Color space : YUV
Chroma subsampling : 4:2:0
Bit depth : 8 bits
Scan type : Progressive
Bits/(Pixel*Frame) : 0.147
Stream size : 8.90 GiB (90%)
Writing library : x264 core 130 r2273 b3065e6
Encoding settings : cabac=1 / ref=4 / deblock=1:-1:-1 / analyse=0x3:0 / me=umh / subme=9 / psy=1 / psy_rd=1.00:0.10 / mixed_ref=1 / me_range=42 / chroma_me=0 / trellis=2 / 8x8dct=1 / cqm=0 / deadzone=21,11 / fast_pskip=0 / chroma_qp_offset=-3 / threads=12 / lookahead_threads=1 / sliced_threads=0 / nr=0 / decimate=0 / interlaced=0 / bluray_compat=0 / constrained_intra=0 / bframes=5 / b_pyramid=2 / b_adapt=2 / b_bias=0 / direct=1 / weightb=1 / open_gop=0 / weightp=2 / keyint=594 / keyint_min=59 / scenecut=40 / intra_refresh=0 / rc=crf / mbtree=0 / crf=15.0 / qcomp=0.60 / qpmin=0 / qpmax=69 / qpstep=4 / ip_ratio=1.40 / pb_ratio=1.30 / aq=0
Language : English
Default : Yes
Forced : No

Audio #1
ID : 2
Format : AC-3
Format/Info : Audio Coding 3
Mode extension : CM (complete main)
Codec ID : A_AC3
Duration : 1h 34mn
Bit rate mode : Constant
Bit rate : 640 Kbps
Channel(s) : 6 channels
Channel positions : Front: L C R, Side: L R, LFE
Sampling rate : 48.0 KHz
Bit depth : 16 bits
Compression mode : Lossy
Stream size : 431 MiB (4%)
Title : Дубляж
Language : Russian
Default : Yes
Forced : No

Audio #2
ID : 3
Format : AC-3
Format/Info : Audio Coding 3
Mode extension : CM (complete main)
Codec ID : A_AC3
Duration : 1h 34mn
Bit rate mode : Constant
Bit rate : 640 Kbps
Channel(s) : 6 channels
Channel positions : Front: L C R, Side: L R, LFE
Sampling rate : 48.0 KHz
Bit depth : 16 bits
Compression mode : Lossy
Stream size : 431 MiB (4%)
Title : Original
Language : English
Default : No
Forced : No

Text #1
ID : 4
Format : UTF-8
Codec ID : S_TEXT/UTF8
Codec ID/Info : UTF-8 Plain Text
Title : Полные
Language : Russian
Default : No
Forced : No

Text #2
ID : 5
Format : UTF-8
Codec ID : S_TEXT/UTF8
Codec ID/Info : UTF-8 Plain Text
Title : Полные
Language : English
Default : No
Forced : No

Menu
00:00:00.000 : :Chapter 01
00:07:32.368 : :Chapter 02
00:13:39.318 : :Chapter 03
00:18:25.437 : :Chapter 04
00:25:13.386 : :Chapter 05
00:30:07.806 : :Chapter 06
00:32:17.727 : :Chapter 07
00:38:53.497 : :Chapter 08
00:44:21.784 : :Chapter 09
00:50:56.053 : :Chapter 10
00:55:23.653 : :Chapter 11
01:01:46.160 : :Chapter 12
01:08:50.376 : :Chapter 13
01:14:42.769 : :Chapter 14
01:19:13.248 : :Chapter 15
01:24:15.550 : :Chapter 16
01:34:04.472 : :Chapter 17
Обитель зла 4: Жизнь после смерти 3D / Resident Evil: Afterlife

Год выпуска: 2010
Страна: Германия, Франция, США, Канада
Жанр: ужасы, фантастика, боевик, приключения
Продолжительность: 01:36:52
Перевод: Дубляж
Субтитры:Русские (Форсировнные), Русские (Полные), Английские (Полные)
Режиссер: Пол У. С. Андерсон / Paul W.S. Anderson
В ролях:

Милла Йовович (Alice), Эли Лартер (Claire Redfield), Вентворт Миллер (Chris Redfield), Борис Коджо (Luther), Ким Коутс (Bennett), Шон Робертс (Albert Wesker), Серхио Перис-Менчета (Angel), Спенсер Лок (K-Mart), Сиенна Гиллори (Jill Valentine), Кейси Барнфилд (Crystal Waters), Норман Енг (Kim Yong), Фульвио Чечере (Wendell)
Описание:
Элис продолжает свой путь в мире, поражённом вирусной инфекцией, превращающей людей в нежить. Героиня ищет оставшихся в живых, чтобы вывести их в безопасное место. Её смертельная битва с корпорацией Амбрелла выходит на новый уровень...
Рейтинг:


Автор рипа:Tiberiumsun69
Качество: BDRip 1080p
Формат: MKV
Видео кодек: AVC
Аудио кодек:AC3
Видео: AVC, 1920x792, 10891 kbps, 59,940 fps
Аудио №1: русский / AC3 / 5.1 / 48 kHz / 448 kbps / 16 bit |Дубляж BD CEE|
Аудио №2: английский / AC3 / 5.1 / 48 kHz / 640 kbps / 16 bit
Навигация по главам: есть

General
Unique ID : 225284941280437580735799868863601775621 (0xA97C4D2B60DD3A9A8C0A5D0F297D1405)
Complete name : A:\1080p 60fps\Обитель зла 1080p 60fps\Обитель зла 4 1080p 60fps.mkv
Format : Matroska
Format version : Version 4 / Version 2
File size : 8.27 GiB
Duration : 1h 36mn
Overall bit rate : 12.2 Mbps
Encoded date : UTC 2014-08-05 22:42:04
Writing application : mkvmerge v6.9.1 ('Blue Panther') 64bit built on Apr 18 2014 18:23:38
Writing library : libebml v1.3.0 + libmatroska v1.4.1

Video
ID : 1
Format : AVC
Format/Info : Advanced Video Codec
Format profile : High@L4.1
Format settings, CABAC : Yes
Format settings, ReFrames : 4 frames
Codec ID : V_MPEG4/ISO/AVC
Duration : 1h 36mn
Bit rate : 10.9 Mbps
Width : 1 920 pixels
Height : 792 pixels
Display aspect ratio : 2.40:1
Frame rate : 59.940 fps
Color space : YUV
Chroma subsampling : 4:2:0
Bit depth : 8 bits
Scan type : Progressive
Bits/(Pixel*Frame) : 0.119
Stream size : 7.37 GiB (89%)
Writing library : x264 core 130 r2273 b3065e6
Encoding settings : cabac=1 / ref=4 / deblock=1:-1:-1 / analyse=0x3:0 / me=umh / subme=9 / psy=1 / psy_rd=1.00:0.10 / mixed_ref=1 / me_range=42 / chroma_me=0 / trellis=2 / 8x8dct=1 / cqm=0 / deadzone=21,11 / fast_pskip=0 / chroma_qp_offset=-3 / threads=12 / lookahead_threads=1 / sliced_threads=0 / nr=0 / decimate=0 / interlaced=0 / bluray_compat=0 / constrained_intra=0 / bframes=5 / b_pyramid=2 / b_adapt=2 / b_bias=0 / direct=1 / weightb=1 / open_gop=0 / weightp=2 / keyint=594 / keyint_min=59 / scenecut=40 / intra_refresh=0 / rc=crf / mbtree=0 / crf=15.0 / qcomp=0.60 / qpmin=0 / qpmax=69 / qpstep=4 / ip_ratio=1.40 / pb_ratio=1.30 / aq=0
Language : English
Default : Yes
Forced : No

Audio #1
ID : 2
Format : AC-3
Format/Info : Audio Coding 3
Mode extension : CM (complete main)
Codec ID : A_AC3
Duration : 1h 36mn
Bit rate mode : Constant
Bit rate : 448 Kbps
Channel(s) : 6 channels
Channel positions : Front: L C R, Side: L R, LFE
Sampling rate : 48.0 KHz
Bit depth : 16 bits
Compression mode : Lossy
Stream size : 310 MiB (4%)
Title : Дубляж
Language : Russian
Default : Yes
Forced : No

Audio #2
ID : 3
Format : AC-3
Format/Info : Audio Coding 3
Mode extension : CM (complete main)
Codec ID : A_AC3
Duration : 1h 36mn
Bit rate mode : Constant
Bit rate : 640 Kbps
Channel(s) : 6 channels
Channel positions : Front: L C R, Side: L R, LFE
Sampling rate : 48.0 KHz
Bit depth : 16 bits
Compression mode : Lossy
Stream size : 443 MiB (5%)
Title : Original
Language : English
Default : No
Forced : No

Text #1
ID : 4
Format : UTF-8
Codec ID : S_TEXT/UTF8
Codec ID/Info : UTF-8 Plain Text
Title : Форсировнные
Language : Russian
Default : Yes
Forced : No

Text #2
ID : 5
Format : UTF-8
Codec ID : S_TEXT/UTF8
Codec ID/Info : UTF-8 Plain Text
Title : Полные
Language : Russian
Default : No
Forced : No

Text #3
ID : 6
Format : UTF-8
Codec ID : S_TEXT/UTF8
Codec ID/Info : UTF-8 Plain Text
Title : Полные
Language : English
Default : No
Forced : No

Menu
00:00:00.000 : :Chapter 01
00:07:51.304 : :Chapter 02
00:14:04.552 : :Chapter 03
00:19:21.368 : :Chapter 04
00:25:23.939 : :Chapter 05
00:30:07.222 : :Chapter 06
00:35:08.189 : :Chapter 07
00:41:51.091 : :Chapter 08
00:47:07.241 : :Chapter 09
00:53:41.468 : :Chapter 10
01:00:53.941 : :Chapter 11
01:07:58.532 : :Chapter 12
01:14:07.985 : :Chapter 13
01:17:54.711 : :Chapter 14
01:23:39.014 : :Chapter 15
01:27:24.489 : :Chapter 16
Обитель зла: Возмездие / Resident Evil: Retribution

Год выпуска: 2012
Страна: Германия, Канада, США, Франция
Жанр: ужасы, фантастика, боевик, триллер

Продолжительность: 01:35:37
Перевод: Дубляж
Субтитры:Русские (Форсированные), Русские (Полные), Английские (Полные)
Режиссер: Пол У. С. Андерсон / Paul W.S. Anderson
В ролях:

Милла Йовович (Alice), Сиенна Гиллори (Jill Valentine), Йохан Урб (Leon S. Kennedy), Ли Бинбин (Ada Wong), Ариана Энджинир (Becky), Мишель Родригес (Rain), Борис Коджо (Luther West), Кевин Дюран (Barry Burton), Одед Фер (Carlos), Колин Сэлмон (James «One» Shade), Робин Касянов (Sergei), Офилио Портильо (Tony)
Описание:
Смертельный T-вирус, созданный в лабораториях корпорации «Амбрелла», продолжает захватывать Землю, превращая мировое население в легионы пожирающих плоть зомби. Последняя надежда человечества Элис внедряется в самое сердце самой тайной исследовательской базы корпорации и узнает еще больше о собственном таинственном прошлом. Не имея путей к отступлению, Элис продолжает искать виновных в глобальной катастрофе. Вызов, который она принимала в Токио, Нью-Йорке, Вашингтоне и даже в Москве, приводит ее в итоге к взрывающему сознание откровению, которое заставит ее переосмыслить все, что она полагала правдой. С помощью новых союзников и старых друзей, Элис будет сражаться за выживание и убегать из враждебного мира. Отсчет времени начат...
Рейтинг:


Автор рипа:Tiberiumsun69
Качество: BDRip 1080p
Формат: MKV
Видео кодек: AVC
Аудио кодек:AC3
Видео: AVC, 1920x800, 11533 kbps, 59,940 fps
Аудио №1: русский / AC3 / 5.1 / 48 kHz / 640 kbps / 16 bit |Дубляж BD CEE|
Аудио №2: английский / AC3 / 5.1 / 48 kHz / 640 kbps / 16 bit
Навигация по главам: есть

General
Unique ID : 249028010881660406097637834911818654906 (0xBB590CE16E91E568A0CF7A668AEF24BA)
Complete name : A:\1080p 60fps\Обитель зла 1080p 60fps\Обитель зла 5 1080p 60fps.mkv
Format : Matroska
Format version : Version 4 / Version 2
File size : 8.73 GiB
Duration : 1h 35mn
Overall bit rate : 13.1 Mbps
Encoded date : UTC 2014-08-05 22:45:12
Writing application : mkvmerge v6.9.1 ('Blue Panther') 64bit built on Apr 18 2014 18:23:38
Writing library : libebml v1.3.0 + libmatroska v1.4.1

Video
ID : 1
Format : AVC
Format/Info : Advanced Video Codec
Format profile : High@L4.1
Format settings, CABAC : Yes
Format settings, ReFrames : 4 frames
Codec ID : V_MPEG4/ISO/AVC
Duration : 1h 35mn
Bit rate : 11.5 Mbps
Width : 1 920 pixels
Height : 800 pixels
Display aspect ratio : 2.40:1
Frame rate : 59.940 fps
Color space : YUV
Chroma subsampling : 4:2:0
Bit depth : 8 bits
Scan type : Progressive
Bits/(Pixel*Frame) : 0.125
Stream size : 7.70 GiB (88%)
Writing library : x264 core 130 r2273 b3065e6
Encoding settings : cabac=1 / ref=4 / deblock=1:-1:-1 / analyse=0x3:0 / me=umh / subme=9 / psy=1 / psy_rd=1.00:0.10 / mixed_ref=1 / me_range=42 / chroma_me=0 / trellis=2 / 8x8dct=1 / cqm=0 / deadzone=21,11 / fast_pskip=0 / chroma_qp_offset=-3 / threads=12 / lookahead_threads=1 / sliced_threads=0 / nr=0 / decimate=0 / interlaced=0 / bluray_compat=0 / constrained_intra=0 / bframes=5 / b_pyramid=2 / b_adapt=2 / b_bias=0 / direct=1 / weightb=1 / open_gop=0 / weightp=2 / keyint=594 / keyint_min=59 / scenecut=40 / intra_refresh=0 / rc=crf / mbtree=0 / crf=15.0 / qcomp=0.60 / qpmin=0 / qpmax=69 / qpstep=4 / ip_ratio=1.40 / pb_ratio=1.30 / aq=0
Language : English
Default : Yes
Forced : No

Audio #1
ID : 2
Format : AC-3
Format/Info : Audio Coding 3
Mode extension : CM (complete main)
Codec ID : A_AC3
Duration : 1h 35mn
Bit rate mode : Constant
Bit rate : 640 Kbps
Channel(s) : 6 channels
Channel positions : Front: L C R, Side: L R, LFE
Sampling rate : 48.0 KHz
Bit depth : 16 bits
Compression mode : Lossy
Stream size : 438 MiB (5%)
Title : Дубляж
Language : Russian
Default : Yes
Forced : No

Audio #2
ID : 3
Format : AC-3
Format/Info : Audio Coding 3
Mode extension : CM (complete main)
Codec ID : A_AC3
Duration : 1h 35mn
Bit rate mode : Constant
Bit rate : 640 Kbps
Channel(s) : 6 channels
Channel positions : Front: L C R, Side: L R, LFE
Sampling rate : 48.0 KHz
Bit depth : 16 bits
Compression mode : Lossy
Stream size : 438 MiB (5%)
Title : Original
Language : English
Default : No
Forced : No

Text #1
ID : 4
Format : UTF-8
Codec ID : S_TEXT/UTF8
Codec ID/Info : UTF-8 Plain Text
Title : Форсированные
Language : Russian
Default : Yes
Forced : No

Text #2
ID : 5
Format : UTF-8
Codec ID : S_TEXT/UTF8
Codec ID/Info : UTF-8 Plain Text
Title : Полные
Language : Russian
Default : No
Forced : No

Text #3
ID : 6
Format : UTF-8
Codec ID : S_TEXT/UTF8
Codec ID/Info : UTF-8 Plain Text
Title : Полные
Language : English
Default : No
Forced : No

Menu
00:00:00.000 : :Chapter 01
00:07:43.045 : :Chapter 02
00:14:32.538 : :Chapter 03
00:21:38.839 : :Chapter 04
00:25:39.329 : :Chapter 05
00:29:31.186 : :Chapter 06
00:34:16.846 : :Chapter 07
00:39:14.769 : :Chapter 08
00:45:29.435 : :Chapter 09
00:50:27.441 : :Chapter 10
00:54:42.070 : :Chapter 11
01:00:14.861 : :Chapter 12
01:05:38.476 : :Chapter 13
01:11:22.903 : :Chapter 14
01:16:15.571 : :Chapter 15
01:21:29.384 : :Chapter 16
Авторская группа в ВК
pb.wtf



Скачать Обитель зла через торрент https://pic.kartinco.top/new/img/2014-08/08/yvlz1e0vmltf2u9amnjhuizth.png Скачать, смотреть онлайн Обитель зла бесплантно в хорошем качестве Описание: В гигантской подземной лаборатории на волю вырывается опаснейший вирус, мгновенно превращая своих жертв в прожорливых зомби. ... 9.6 10 54
Info! Золотая раздача, скачанное не засчитывается.
Торрент: Зарегистрирован [2014-08-08 15:11] · скачан: 451 раз
Статус: √ проверено
Размер: 48.93 GB
Как cкачать? Как скачать Обитель зла через торрент | UTorrent

% Раздел Тема Автор DL S | L
Сборники и Сиквелы (48-60 fps) [ 24.68 GB ] Обитель зла / Resident Evil [Антология] [2002-2012 BDRip 720p DUB] 60fps Tiberiumsun69 Скачать
1 | 1
Сборники и Сиквелы (48-60 fps) [ 16.05 GB ] Обитель зла : Антология / Resident Evil : Antology [2002-2012 Германия BDRip-AVC 60fps ] от R.G. HD-Films Tiberiumsun69 Скачать
1 | 0


Последний раз редактировалось: Tiberiumsun69 (2018-02-07 08:05), всего редактировалось 1 раз

28-11-2019 20:33  

Отключить всю рекламу на сайте

08-08-2014 15:11 Обитель зла Скачать торрент  

4 и 5 часть в 2D.Приятного просмотра.pb.wtf



08-08-2014 17:38 Обитель зла Скачать торрент  

Спасибо,можно в коллекцию.pb.wtf



28-12-2014 12:52 Обитель зла Скачать торрент  

раздавать будем или нет ?pb.wtf



30-12-2014 08:41 Обитель зла Скачать торрент  

дайте скорости!!!! больше 34кб/с не поднимается.! pb.wtf



24-02-2016 09:40 Обитель зла Скачать торрент  

Tiberiumsun69, Буду признателен если станете на раздачу... не качает вообще!pb.wtf



10-08-2016 05:04 Обитель зла Скачать торрент  

stas0859 писал(а):

Спасибо,можно в коллекцию.

Это верно подмечено, в коллекцию)))pb.wtf



11-08-2016 06:07 Обитель зла Скачать торрент  

скорость дайтеpb.wtf



08-10-2016 19:16 Обитель зла Скачать торрент  

Господа Скачавшие, пожалуйста, вернитесь на раздачу хотя бы на пару часов. Я скачаю и буду раздавать.
Спасибо.pb.wtf



11-10-2016 09:37 Обитель зла Скачать торрент  

а где раздача то?pb.wtf



11-01-2017 17:57 Обитель зла Скачать торрент  

Я как и многие являюсь фанатом Resident Evil(игры)!Познакомился с серией игр еще на первом плейстейшене... Просто взахлеб прошел сначала 3 часть, потом 2-ю, 1ю-прошел спустя много лет уже на ПК как и 5-ю, 6-я не очень понравилась, так и не прошел пока... Жаль что такую великолепную игру так дерьмово реализовали в плане кино((( Моя оценка 1,2 части 6/10, 3,4 части 4/10, 5 часть 2/10 "Бред сивой кобылы"
P.S Хотелось бы что б RE6 сняли нормальный, но что то мне подсказывает что это будет полный шлак(((pb.wtf



12-08-2018 08:54 Обитель зла Скачать торрент  

Спасибо, тому единственному сиду который сейчас раздаёт.pb.wtf



    Дорогой пользователь! Огромная просьба, поблагодарите релизера, оцените раздачу и оставьте свои комментарий, если Вы скачали Обитель зла через торрент бесплатно!
    Комментировать посты могут только пользователи прошедшие не сложную регистрацию
    Показать сообщения:    

    Обитель зла через торрент
    Скачать бесплатно Обитель зла
    Обитель зла скачать торрент
    Обитель зла смотреть онлайн
    Cкачать фильм Обитель зла бесплатно
    Обитель зла скачать торрент в хорошем качестве
    Обитель зла смотреть онлайн бесплатно в хорошем качестве


    Вы не можете начинать темы
    Вы не можете отвечать на сообщения
    Вы не можете редактировать свои сообщения
    Вы не можете удалять свои сообщения
    Вы не можете голосовать в опросах
    Вы не можете прикреплять файлы к сообщениям
    Вы можете скачивать файлы